<?xml version="1.0" standalone="no"?>
<!DOCTYPE svg PUBLIC "-//W3C//DTD SVG 1.1//EN" "http://www.w3.org/Graphics/SVG/1.1/DTD/svg11.dtd" >
<!--
2013-9-30: Created.
-->
<svg>
<metadata>
Created by iconfont
</metadata>
<defs>

<font id="iconfont" horiz-adv-x="1024" >
  <font-face
    font-family="iconfont"
    font-weight="500"
    font-stretch="normal"
    units-per-em="1024"
    ascent="896"
    descent="-128"
  />
    <missing-glyph />
    
    <glyph glyph-name="x" unicode="x" horiz-adv-x="1001"
d="M281 543q-27 -1 -53 -1h-83q-18 0 -36.5 -6t-32.5 -18.5t-23 -32t-9 -45.5v-76h912v41q0 16 -0.5 30t-0.5 18q0 13 -5 29t-17 29.5t-31.5 22.5t-49.5 9h-133v-97h-438v97zM955 310v-52q0 -23 0.5 -52t0.5 -58t-10.5 -47.5t-26 -30t-33 -16t-31.5 -4.5q-14 -1 -29.5 -0.5
t-29.5 0.5h-32l-45 128h-439l-44 -128h-29h-34q-20 0 -45 1q-25 0 -41 9.5t-25.5 23t-13.5 29.5t-4 30v167h911zM163 247q-12 0 -21 -8.5t-9 -21.5t9 -21.5t21 -8.5q13 0 22 8.5t9 21.5t-9 21.5t-22 8.5zM316 123q-8 -26 -14 -48q-5 -19 -10.5 -37t-7.5 -25t-3 -15t1 -14.5
t9.5 -10.5t21.5 -4h37h67h81h80h64h36q23 0 34 12t2 38q-5 13 -9.5 30.5t-9.5 34.5q-5 19 -11 39h-368zM336 498v228q0 11 2.5 23t10 21.5t20.5 15.5t34 6h188q31 0 51.5 -14.5t20.5 -52.5v-227h-327z" />
    

    
    <glyph glyph-name="xiansuo" unicode="&#59334;" d="M72.318584 319.61371c0 0 29.861098-22.236444 39.826054 18.199501 0.208754 0.845251 0.408299 1.718131 0.598634 2.619664 9.3039 43.996027 25.052582 131.086547 94.644567 212.211193 0 0 87.512123 119.262244 269.692349 147.267065 0 0 38.07313-5.610788 26.944676 31.149441 0 0-1.578961 24.214495-46.696532 17.644869 0 0-134.683469 2.157129-268.033569-134.672212 0 0-78.091566-72.362075-116.977201-200.275349 0 0-8.909927-46.942125-8.568143-55.641251C63.750441 358.116629 58.942949 325.342178 72.318584 319.61371zM545.192472 740.772772c0 0-22.236444-29.861098 18.199501-39.827077 0.845251-0.207731 1.718131-0.407276 2.619664-0.598634 43.996027-9.3039 131.086547-25.052582 212.211193-94.644567 0 0 119.262244-87.512123 147.267065-269.692349 0 0-5.610788-38.07313 31.149441-26.944676 0 0 24.214495 1.578961 17.644869 46.696532 0 0 2.157129 134.683469-134.672212 268.034593 0 0-72.362075 78.091566-200.275349 116.977201 0 0-46.941102 8.909927-55.641251 8.568143C583.695391 749.340915 550.921963 754.149431 545.192472 740.772772zM969.423499 266.317876c0 0-29.861098 22.236444-39.827077-18.199501-0.207731-0.845251-0.407276-1.718131-0.598634-2.619664-9.3039-43.996027-25.052582-131.086547-94.644567-212.211193 0 0-87.512123-119.262244-269.692349-147.267065 0 0-38.07313 5.610788-26.944676-31.149441 0 0 1.578961-24.214495 46.696532-17.644869 0 0 134.683469-2.157129 268.034593 134.672212 0 0 78.091566 72.362075 116.977201 200.275349 0 0 8.909927 46.941102 8.568143 55.641251C977.991642 227.814957 982.799134 260.588385 969.423499 266.317876zM494.499929-161.448674c0 0 22.236444 29.861098-18.199501 39.827077-0.845251 0.207731-1.719154 0.407276-2.619664 0.598634-43.995003 9.3039-131.086547 25.052582-212.211193 94.644567 0 0-119.263268 87.512123-147.267065 269.692349 0 0 5.610788 38.07313-31.149441 26.944676 0 0-24.213471-1.578961-17.644869-46.696532 0 0-2.157129-134.683469 134.672212-268.034593 0 0 72.362075-78.091566 200.275349-116.977201 0 0 46.942125-8.909927 55.641251-8.568143C455.99701-170.016817 488.772484-174.824309 494.499929-161.448674zM239.389694 317.567098c0 0 24.599258-17.936511 35.097356 18.365276 0 0 21.251 80.44517 53.028751 112.426559 0 0 53.79623 64.110133 120.332622 80.246649l38.779212 12.028964c0 0 33.955346 5.130857 13.972223 36.853349 0 0-8.330736 13.679557-36.375465 9.911744 0 0-59.292408 0.794086-130.432655-55.724139 0 0-63.10934-52.803623-89.125877-115.03599 0 0-10.689457-26.236548-16.473183-50.929949C228.194724 365.708538 206.917118 322.683628 239.389694 317.567098zM544.228517 575.328719c0 0-17.936511-24.599258 18.365276-35.097356 0 0 80.44517-21.252023 112.425535-53.029774 0 0 64.110133-53.795207 80.246649-120.332622l12.028964-38.779212c0 0 5.130857-33.955346 36.853349-13.9712 0 0 13.678534 8.330736 9.911744 36.375465 0 0 0.794086 59.292408-55.724139 130.432655 0 0-52.803623 63.10934-115.03599 89.125877 0 0-26.236548 10.688433-50.929949 16.473183C592.369957 586.524712 549.345048 607.802318 544.228517 575.328719zM801.991162 272.537532c0 0-24.599258 17.936511-35.097356-18.365276 0 0-21.252023-80.44517-53.029774-112.425535 0 0-53.795207-64.110133-120.332622-80.246649l-38.779212-12.028964c0 0-33.955346-5.130857-13.9712-36.853349 0 0 8.330736-13.678534 36.375465-9.911744 0 0 59.292408-0.794086 130.432655 55.724139 0 0 63.10934 52.803623 89.125877 115.03599 0 0 10.688433 26.236548 16.473183 50.929949C813.186132 224.396091 834.463738 267.421001 801.991162 272.537532zM498.175645 14.774887c0 0 17.936511 24.599258-18.365276 35.097356 0 0-80.44517 21.252023-112.425535 53.029774 0 0-64.110133 53.795207-80.246649 120.332622l-12.028964 38.779212c0 0-5.130857 33.955346-36.853349 13.9712 0 0-13.678534-8.330736-9.911744-36.375465 0 0-0.794086-59.292408 55.724139-130.432655 0 0 52.803623-63.10934 115.03599-89.125877 0 0 26.236548-10.688433 50.929949-16.473183C450.034205 3.579917 493.059114-17.697689 498.175645 14.774887zM364.12458 318.590404c0 0 27.13808-20.521383 42.714847 11.352559 0 0 15.456017 56.977689 89.638553 87.692225 0 0 18.989493 18.794042 4.122901 42.25129 0 0-9.673313 15.648398-40.955784 0.621147 0 0-67.231217-15.546068-101.412714-105.848747C358.232382 354.657854 347.289146 323.431665 364.12458 318.590404zM552.948109 459.01462c0 0-20.522406-27.13808 11.352559-42.714847 0 0 56.977689-15.456017 87.692225-89.639576 0 0 18.794042-18.989493 42.25129-4.121877 0 0 15.647375 9.673313 0.620124 40.955784 0 0-15.546068 67.231217-105.848747 101.412714C589.016583 464.906817 557.790394 475.851077 552.948109 459.01462zM684.163593 273.261009c0 0-27.13808 20.522406-42.714847-11.352559 0 0-15.456017-56.977689-89.639576-87.692225 0 0-18.989493-18.794042-4.121877-42.25129 0 0 9.673313-15.647375 40.955784-0.620124 0 0 67.231217 15.546068 101.412714 105.848747C690.05579 237.193559 700.999027 268.419747 684.163593 273.261009zM501.479901 135.905688c0 0 20.522406 27.13808-11.352559 42.714847 0 0-56.977689 15.456017-87.692225 89.639576 0 0-18.794042 18.989493-42.25129 4.121877 0 0-15.647375-9.673313-0.620124-40.955784 0 0 15.546068-67.231217 105.848747-101.412714C465.411427 130.014514 496.637616 119.070254 501.479901 135.905688z"  horiz-adv-x="1024" />

    
    <glyph glyph-name="shangchuan" unicode="&#58934;" d="M511.695055 715.96476c-15.241123 0-28.932959-6.602372-38.389332-17.10354l-0.00307 0.005117-154.98177-172.201967 0.00307-0.004093c-8.246825-9.153474-13.265118-21.267373-13.265118-34.55705 0-28.529777 23.127743-51.66059 51.65752-51.66059 15.244192 0 28.939099 6.605442 38.395472 17.105586l0.00307-0.002047 64.925708 72.133877 0-338.929246c0-0.002047 0-0.002047 0-0.002047 0-28.5308 23.127743-51.66059 51.65445-51.66059 28.538987 0 51.662637 23.128767 51.662637 51.66059 0 0 0 0 0 0.002047L563.357691 529.681076l64.922638-72.133877 0.00614 0.002047c9.454326-10.500145 23.149233-17.105586 38.392402-17.105586 28.532847 0 51.66059 23.130813 51.66059 51.66059 0 13.289678-5.02034 25.403576-13.265118 34.55705l0.00307 0.004093L550.096666 698.866337l-0.00307-0.005117C540.640294 709.362388 526.942317 715.96476 511.695055 715.96476zM856.102059 193.995711l0-206.641337L167.29726-12.645626 167.29726 193.995711c0 28.532847-23.130813 51.66059-51.66059 51.66059s-51.66059-23.127743-51.66059-51.66059l0-258.301927c0-28.5308 23.130813-51.658544 51.66059-51.658544l792.125979 0c28.535917 0 51.662637 23.127743 51.662637 51.658544L959.425286 193.995711c0 28.532847-23.127743 51.66059-51.662637 51.66059C879.232872 245.656301 856.102059 222.528558 856.102059 193.995711z"  horiz-adv-x="1024" />

    
    <glyph glyph-name="icon1" unicode="&#58880;" d="M944.354032 520.778312 522.689457 746.101127c-1.488911 0.829901-3.091408 0.966001-4.647857 1.52268-1.409093 0.545422-2.750647 1.079588-4.250814 1.38658-1.932002 0.385786-3.784186 0.420579-5.716188 0.398066-1.943258 0.022513-3.796466-0.011256-5.739724-0.398066-1.488911-0.306992-2.818185-0.841158-4.239558-1.38658-1.556449-0.545422-3.182482-0.692778-4.660136-1.52268L71.78186 520.778312c-13.797237-7.785314-18.536168-25.003464-10.558473-38.48143 7.978718-13.478989 25.616424-18.093077 39.413662-10.307763l38.504966 20.576641 0-559.028083c2.920516-47.25628 40.732703-85.078701 87.385233-85.078701L789.607622-151.541023c46.642297 0 84.453461 37.82242 84.453461 84.48723L874.061083 494.120163l41.425482-22.131043c13.808494-7.785314 31.447223-3.171226 39.424918 10.307763C962.878944 495.775872 958.140013 512.994022 944.354032 520.778312zM592.527035-95.216203 423.597601-95.216203l0 197.160405c0 15.558347 12.604062 28.16241 28.151154 28.16241l112.61587 0c15.569604 0 28.16241-12.604062 28.16241-28.16241L592.527035-95.216203zM817.758776-38.880127c0-31.117718-25.208125-56.336076-56.302307-56.336076L648.851854-95.216203 648.851854 130.106612c0 31.106462-25.230638 56.336076-56.32482 56.336076L423.597601 186.442688c-31.094182 0-56.313563-25.230638-56.313563-56.336076l0-225.322815L254.69068-95.216203c-31.105439 0-56.32482 25.218358-56.32482 56.336076L198.36586 524.200248l309.708737 165.508521L817.758776 524.200248 817.758776-38.880127zM395.446447 411.776759c0-62.2119 50.426483-112.673176 112.627127-112.673176 62.178131 0 112.61587 50.460252 112.61587 112.673176 0 62.223157-50.437739 112.660896-112.61587 112.660896C445.87293 524.438679 395.446447 474.000939 395.446447 411.776759zM564.364625 411.776759c0-31.117718-25.195845-56.336076-56.291051-56.336076-31.117718 0-56.32482 25.218358-56.32482 56.336076 0 31.117718 25.207102 56.336076 56.32482 56.336076C539.167756 468.113859 564.364625 442.894478 564.364625 411.776759z"  horiz-adv-x="1024" />

    
    <glyph glyph-name="zhuanxiangjiancha" unicode="&#58927;" d="M101.646028 333.374996l366.244358-192.246489c33.463136-16.906042 47.923476-16.906042 84.172051 0l378.974287 205.006094c18.700921 9.29162 25.511024 30.017664 25.511024 53.640688-62.026682-32.18912-446.586175-232.279251-446.586175-232.279251S112.487957 376.334413 63.359027 399.776312C63.359027 376.673128 81.487919 344.749044 101.646028 333.374996zM88.945775 513.670292l378.944612-181.947935c33.463136-16.861016 47.923476-16.861016 84.172051 0l378.973264 181.947935c27.889187 13.920034 28.805046 72.944336 0 89.907683L552.083927 817.215656c-29.727045 18.783809-50.709939 17.901719-84.172051 0L88.945775 603.503273C60.060911 583.652156 59.144028 530.553821 88.945775 513.670292zM127.166261 575.812607l347.975273 205.229175c27.975145 15.168468 45.51666 15.916505 70.369697 0l334.487074-192.46957c24.081465-14.374382 36.075637-39.243793 12.759605-51.039443L545.492812 369.65734c-30.30419-14.286378-42.394552-14.286378-70.370721 0L127.166261 537.532769C102.250802 551.838589 103.016235 558.990476 127.166261 575.812607zM63.359027 209.186556c0-23.072485 5.369288-43.00035 25.527396-54.450123l379.004987-204.246801c33.463136-16.882506 47.923476-16.882506 84.172051 0l378.974287 204.246801c18.707061 9.336646 25.511024 30.879288 25.511024 54.450123-76.010161-39.808658-446.586175-233.087663-446.586175-233.087663S165.852352 153.530978 63.359027 209.186556z"  horiz-adv-x="1024" />

    
    <glyph glyph-name="qianbao" unicode="&#58940;" d="M799.488-4.448 159.936-4.448c-52.928 0-96 43.072-96 96l0 578.496c0 52.928 43.072 96 96 96l642.496 0c52.928 0 96-43.072 96-96L898.432 576c0-17.664-14.304-32-32-32s-32 14.336-32 32l0 94.048c0 17.632-14.336 32-32 32L159.936 702.048c-17.632 0-32-14.368-32-32l0-578.496c0-17.664 14.368-32 32-32l639.552 0c17.664 0 32 14.336 32 32l0 98.944c0 17.696 14.304 32 32 32s32-14.304 32-32l0-98.944C895.488 38.624 852.448-4.448 799.488-4.448zM630.144 381.888c0 17.302 14.026 31.328 31.328 31.328S692.8 399.19 692.8 381.888c0-17.302-14.026-31.328-31.328-31.328S630.144 364.586 630.144 381.888zM896 256 576 256c-35.296 0-64 28.704-64 64L512 448c0 35.296 28.704 64 64 64l320 0c35.296 0 64-28.704 64-64l0-128C960 284.704 931.296 256 896 256zM576 448l0-128 320.064 0L896 448 576 448z"  horiz-adv-x="1024" />

    
    <glyph glyph-name="mima" unicode="&#59048;" d="M734.862275 480.269577l0 68.198242c0 121.831766-99.125625 220.592071-221.414809 220.592071l-2.898003 0c-122.31886 0-221.415832-98.760305-221.415832-220.592071l0-68.198242-76.852342 0 0-367.025141c0-63.123666 51.347458-114.302279 114.734114-114.302279l369.966123 0c63.389726 0 114.736161 51.179636 114.736161 114.302279L811.717687 480.269577 734.862275 480.269577zM519.74694 144.326339c-47.527456 0-86.079494 38.384216-86.079494 85.745896 0 47.348378 38.552038 85.74385 86.079494 85.74385 47.498804 0 86.026282-38.395472 86.026282-85.74385C605.774245 182.710554 567.245743 144.326339 519.74694 144.326339zM638.246821 480.269577 385.749086 480.269577l0 68.198242c0 68.544119 55.975872 124.32454 124.800377 124.32454l2.898003 0c68.826552 0 124.799354-55.780421 124.799354-124.32454L638.246821 480.269577z"  horiz-adv-x="1024" />

    
    <glyph glyph-name="return" unicode="&#58962;" d="M175.258 336c-26.067 0-47.258 21.498-47.258 48v0c0 26.502 21.19 48 47.258 48h673.491c26.067 0 47.251-21.498 47.251-48v0c0-26.502-21.184-48-47.251-48h-673.491zM209.562 350.502c-18.432-18.432-48.614-18.214-67.354 0.525v0c-18.739 18.739-18.957 48.928-0.525 67.354l335.942 335.942c18.438 18.432 48.614 18.208 67.354-0.531v0c18.739-18.739 18.963-48.922 0.525-67.347l-335.942-335.942zM141.677 349.619c-18.432 18.432-18.214 48.614 0.525 67.354v0c18.739 18.739 48.928 18.957 67.354 0.525l335.942-335.936c18.438-18.438 18.208-48.614-0.531-67.354v0c-18.739-18.739-48.922-18.963-67.347-0.525l-335.942 335.936z"  horiz-adv-x="1024" />

    
    <glyph glyph-name="plus" unicode="&#58925;" d="M511.674077 828.461791c27.313066 0 49.460482-22.145369 49.460482-49.459458l0-791.356452c0-27.314089-22.147416-49.461505-49.460482-49.461505s-49.460482 22.147416-49.460482 49.461505L462.213595 779.003356C462.213595 806.316421 484.359988 828.461791 511.674077 828.461791zM115.995339 432.784076l791.356452 0c27.314089 0 49.460482-22.145369 49.460482-49.460482 0-27.314089-22.146393-49.459458-49.460482-49.459458L115.995339 333.864136c-27.314089 0-49.459458 22.146393-49.459458 49.459458C66.535881 410.638707 88.68125 432.784076 115.995339 432.784076z"  horiz-adv-x="1024" />

    
    <glyph glyph-name="liucheng" unicode="&#58888;" d="M909.62302 180.974004l-50.592258 0L859.030761 346.6483c0 39.34817-32.057113 71.405283-71.402213 71.405283L533.846564 418.053584 533.846564 589.072609l51.478442 0c26.266224 0 47.585785 21.314445 47.585785 47.584762L632.91079 783.414829c0 26.270317-21.319561 47.585785-47.585785 47.585785L438.618713 831.000614c-26.266224 0-47.580668-21.314445-47.580668-47.585785l0-146.756435c0-26.270317 21.314445-47.584762 47.580668-47.584762l47.696302 0 0-171.019025L236.320287 418.054607c-39.34817 0-71.406307-32.057113-71.406307-71.405283l0-165.618015-50.587142 0c-26.270317-0.055259-47.584762-21.37482-47.584762-47.641043l0-146.761552c0-26.266224 21.314445-47.580668 47.584762-47.580668l146.757458 0c26.270317 0 47.584762 21.314445 47.584762 47.580668L308.669058 133.389242c0 26.266224-21.314445 47.584762-47.584762 47.584762l-48.583508 0L212.500788 346.6483c0 13.133112 10.683317 23.820522 23.820522 23.820522l249.939469 0 0-189.438537-47.641043 0c-26.266224 0-47.580668-21.314445-47.580668-47.585785l0-146.761552c0-26.266224 21.314445-47.580668 47.580668-47.580668l146.761552 0c26.270317 0 47.584762 21.314445 47.584762 47.580668L632.966049 133.444501c0 26.270317-21.314445 47.585785-47.584762 47.585785l-51.479465 0 0 189.383278L787.683806 370.413564c13.133112 0 23.820522-10.68741 23.820522-23.820522l0-165.618015-48.587602 0c-26.270317 0-47.584762-21.319561-47.584762-47.584762l0-146.761552c0-26.266224 21.314445-47.580668 47.584762-47.580668l146.761552 0c26.266224 0 47.580668 21.314445 47.580668 47.580668L957.258946 133.389242C957.203688 159.655466 935.88822 180.974004 909.62302 180.974004L909.62302 180.974004zM438.618713 783.414829l146.761552 0 0 0 0-146.756435L438.618713 636.658394 438.618713 783.414829 438.618713 783.414829zM261.083274-13.37231 114.325815-13.37231 114.325815 133.389242l146.757458 0L261.083274-13.37231 261.083274-13.37231zM585.325006-13.37231 438.618713-13.37231 438.618713 133.389242l146.761552 0 0-146.761552L585.325006-13.37231zM909.62302-13.37231 762.861468-13.37231 762.861468 133.389242l146.761552 0L909.62302-13.37231 909.62302-13.37231zM909.62302-13.37231"  horiz-adv-x="1024" />

    
    <glyph glyph-name="qqqun" unicode="&#59751;" d="M626.345935 94.500571c34.962286 30.939429 59.587048 69.144381 69.510095 111.811048 25.039238-38.960762 51.541333-60.342857 68.681143-50.980571 24.868571 13.482667 19.870476 85.991619-11.068952 162.06019-24.185905 59.562667-57.027048 103.545905-82.017524 113.39581 0.365714 3.632762 0.633905 7.631238 0.633905 11.459048 0 23.088762-6.192762 44.397714-16.749714 61.756952 0.26819 1.389714 0.26819 2.706286 0.26819 4.096 0 10.654476-2.462476 20.553143-6.607238 29.110857C642.705554 692.272762 546.303269 815.567238 390.265173 815.567238c-155.989333 0-252.513524-123.294476-258.82819-278.357333-4.047238-8.679619-6.558476-18.627048-6.558476-29.232762 0-1.389714 0-2.706286 0.170667-4.071619-10.313143-17.237333-16.505905-38.546286-16.505905-61.70819 0-3.876571 0.219429-7.753143 0.463238-11.53219-24.917333-9.776762-57.856-53.686857-82.017524-113.249524-30.695619-76.068571-35.766857-148.601905-11.068952-162.06019 17.091048-9.362286 43.739429 12.01981 68.778667 50.980571 9.947429-42.666667 34.450286-80.871619 69.510095-111.811048-36.693333-14.238476-60.732952-37.497905-60.732952-63.780571 0-43.300571 64.926476-78.262857 144.993524-78.262857 72.265143 0 132.096 28.40381 143.140571 65.80419 2.925714 0 14.384762 0 17.212952 0 11.239619-37.400381 70.972952-65.80419 143.262476-65.80419 80.213333 0 145.017905 34.962286 145.017905 78.262857C687.12765 57.002667 663.136792 80.067048 626.345935 94.500571zM1002.714697 244.419048c-19.358476 47.640381-45.592381 82.822095-65.609143 90.721524 0.26819 2.901333 0.512 6.095238 0.512 9.167238 0 18.480762-4.973714 35.498667-13.360762 49.39581 0.170667 1.097143 0.170667 2.145524 0.170667 3.242667 0 8.533333-1.926095 16.457143-5.266286 23.30819-5.046857 124.025905-82.139429 222.671238-206.994286 222.671238-12.678095 0-24.746667-1.26781-36.400762-3.218286 4.729905-23.137524 7.777524-47.128381 8.777143-71.850667 4.998095-10.264381 7.92381-22.162286 7.92381-34.937905 0-1.682286 0-3.242667-0.292571-4.924952 12.629333-20.821333 20.065524-46.396952 20.065524-74.093714 0-4.583619-0.390095-9.386667-0.75581-13.726476 29.988571-11.849143 69.38819-64.633905 98.377143-136.094476 10.703238-26.307048 18.773333-52.175238 24.185905-76.166095 0.877714-5.412571 6.41219-40.131048-0.219429-55.661714-7.168-16.847238-0.414476-10.118095-7.168-16.847238-6.729143-6.729143-16.164571-22.235429-24.259048-26.282667s-45.83619-12.8-51.907048-10.118095-9.435429 2.681905-17.529905 8.752762-24.941714 16.188952-24.941714 16.188952l-18.870857-25.453714-13.409524-18.383238c0 0 28.91581-17.529905 32.280381-26.307048 3.364571-8.752762 9.435429-20.21181 8.752762-28.306286-0.658286-8.070095-6.314667-30.72-6.339048-30.841905-2.657524-4.36419-3.510857-7.753143-1.633524-9.606095 3.632762 0 8.630857 0 10.191238 0 9.020952-29.915429 56.758857-52.614095 114.614857-52.614095 64.146286 0 116.028952 27.940571 116.028952 62.585905 0 21.040762-19.21219 39.497143-48.615619 51.053714 27.940571 24.746667 47.664762 55.320381 55.56419 89.453714 20.016762-31.158857 41.22819-48.274286 54.979048-40.813714C1031.45984 125.513143 1027.510126 183.56419 1002.714697 244.419048z"  horiz-adv-x="1025" />

    
    <glyph glyph-name="xingzheng" unicode="&#58936;" d="M704.016-82 319.978-82 319.978 792.631l384.037 0L704.015-82 704.016-82zM362.664-39.315l298.668 0-0.001 789.262L362.664 749.947 362.664-39.315 362.664-39.315zM1023.996-60.689 746.64-60.689 746.64-17.944 981.251-17.944 981.251 728.576 746.64 728.576 746.64 771.321 1023.996 771.321 1023.996-60.689ZM277.355-60.689-0.001-60.689-0.001 771.319 277.355 771.319 277.355 728.574 42.683 728.574 42.683-17.946 277.355-17.946 277.355-60.689ZM256.042 557.959 106.68 557.959 106.68 600.644 256.042 600.644 256.042 557.959ZM256.042 429.966 106.68 429.966 106.68 472.65 256.042 472.65 256.042 429.966ZM256.042 301.974 106.68 301.974 106.68 344.599 256.042 344.599 256.042 301.974ZM597.276 557.959 426.66 557.959 426.66 600.644 597.275 600.644 597.275 557.959 597.276 557.959ZM597.276 429.966 426.66 429.966 426.66 472.65 597.275 472.65 597.275 429.966 597.276 429.966ZM597.276 301.974 426.66 301.974 426.66 344.599 597.275 344.599 597.275 301.974 597.276 301.974ZM917.316 557.959 767.951 557.959 767.951 600.644 917.316 600.644 917.316 557.959ZM917.316 429.966 767.951 429.966 767.951 472.65 917.316 472.65 917.316 429.966ZM917.316 301.974 767.951 301.974 767.951 344.599 917.316 344.599 917.316 301.974ZM511.966 45.991c-47.018 0-85.306 38.23-85.306 85.369 0 47.018 38.287 85.306 85.306 85.306 47.02 0 85.31-38.289 85.31-85.306C597.276 84.221 558.986 45.991 511.966 45.991L511.966 45.991zM511.966 173.983c-23.478 0-42.621-19.145-42.621-42.623 0-23.541 19.144-42.683 42.621-42.683 23.541 0 42.686 19.142 42.686 42.683C554.652 154.838 535.507 173.983 511.966 173.983L511.966 173.983z"  horiz-adv-x="1025" />

    
    <glyph glyph-name="plane" unicode="&#58891;" d="M597.057 319.731l-181.362-171.489 27.323-198.794-68.461-69.707-128.461 207.502-226.065 154.104 67.712 69.429 208.527-41.060 170.346 189.478-449.162 166.419 117.233 119.419 498.864-96.84 165.96 166.031c50.625 51.205 102.111 79.413 144.96 79.413 24.106 0 44.928-8.768 61.888-26.062 9.714-9.848 26.126-31.395 26.819-64.975 0.91-44.027-25.079-93.3-77.244-146.451l-167.399-167.322 85.598-494.479-117.797-119.984-159.279 445.368zM775.694-37.372l46.917 47.716-85.718 494.843 184.997 184.782c59.987 61.109 78.771 114.921 50.219 143.922-8.238 8.335-17.901 12.39-29.539 12.39-16.478 0-52.566-8.558-109.147-65.869l-184.014-184.223-498.637 96.872-47.325-48.224 445.954-165.296-235.677-262.14-183.411 36.127-9.695-22.683 164.892-116.080 79.738-128.735 23.209 8.358-23.637 171.735 252.663 238.914 158.21-442.408zM598.749 326.802l-187.27-177.076 27.335-198.885-63.543-64.7-126.237 203.91-222.848 151.911 62.902 64.496 208.631-41.078 175.767 195.508-448.894 166.321 111.437 113.514 498.842-96.836 167.452 167.527c49.908 50.481 100.368 78.249 142.148 78.249 22.998 0 42.865-8.367 59.051-24.87 9.326-9.455 25.017-30.070 25.682-62.273 0.888-42.918-24.723-91.23-76.108-143.584l-168.828-168.755 85.602-494.502-111.925-114.003-159.196 445.128zM774.085-44.678l52.791 53.689-85.714 494.822 183.537 183.324c61.73 62.883 80.512 118.779 50.243 149.523-9.034 9.142-19.616 13.575-32.371 13.575-17.098 0-54.38-8.711-111.977-67.052l-182.502-182.709-498.659 96.876-53.119-54.13 446.22-165.395-230.256-256.109-184.354 36.312-12.226-28.602 166.861-117.467 81.007-130.783 29.269 10.541-23.797 172.901 246.753 233.326 158.295-442.643z"  horiz-adv-x="1078" />

    
    <glyph glyph-name="falvline" unicode="&#59008;" d="M564.964 734.028l-53.838 53.838c-16.624 16.624-43.57 16.624-60.183 0l-176.587-176.587c-16.624-16.624-16.624-43.57 0-60.183l53.838-53.838c6.75-6.75 17.706-6.75 24.455 0l0 0 76.502-76.502-322.175-322.186c-11.633-11.633-11.633-30.475 0-42.107l53.084-53.084c11.633-11.621 30.475-11.621 42.107 0l322.175 322.186 67.12-67.12c-6.75-6.75-6.75-17.706 0-24.455l53.827-53.827c16.624-16.624 43.57-16.624 60.183 0l176.587 176.576c16.624 16.624 16.624 43.57 0 60.183l-53.827 53.827c-6.75 6.75-17.706 6.75-24.455 0l-1.278-1.278-238.813 238.825 1.278 1.278c6.75 6.75 6.75 17.706 0 24.455zM663.17 215.376l-17.891 17.891c-6.75 6.75-6.75 17.706 0 24.455l159.219 159.219c6.75 6.75 17.706 6.75 24.455 0l17.891-17.891c6.75-6.75 6.75-17.706 0-24.455l-159.231-159.219c-6.75-6.75-17.695-6.75-24.445 0zM618.004 284.986l-93.662 93.662-322.175-322.175c-11.633-11.621-30.475-11.621-42.107 0l0 0c-11.633 11.621-11.633 30.475 0 42.107l322.175 322.175-102.967 102.967 157.941 157.941 238.737-238.737-157.941-157.941zM309.581 593.409l159.219 159.231c6.75 6.75 17.706 6.75 24.455 0l18.623-18.623c6.75-6.75 6.75-17.706 0-24.455l-159.231-159.219c-6.75-6.75-17.706-6.75-24.455 0l-18.623 18.623c-6.739 6.75-6.739 17.695 0.011 24.445zM935.821-55.287l-507.227 0 0 18.765c0 55.979 45.537 101.504 101.516 101.504l304.196 0c55.979 0 101.516-45.537 101.516-101.504l0-18.765zM468.954-17.758l426.519 0c-8.039 26.149-32.418 45.209-61.167 45.209l-304.196 0c-28.749 0-53.117-19.06-61.156-45.209z"  horiz-adv-x="1024" />

    
    <glyph glyph-name="wenzhang-copy" unicode="&#58886;" d="M964.341 893.589h-906.551c-31.163 0-56.659-25.497-56.659-56.659v-906.553c0-31.163 25.497-56.659 56.659-56.659h906.553c31.163 0 56.659 25.497 56.659 56.659v906.553c-0.001 31.163-25.497 56.659-56.66 56.659zM964.341-69.622h-906.551v906.553h906.553v-906.553zM298.593 581.962h-113.318v56.659h113.318v-56.659zM836.859 581.962h-481.606v56.659h481.606v-56.659zM298.593 355.324h-113.318v56.659h113.318v-56.659zM836.859 355.324h-481.606v56.659h481.606v-56.659zM298.593 128.685h-113.318v56.659h113.318v-56.659zM836.859 128.685h-481.606v56.659h481.606v-56.659z"  horiz-adv-x="1024" />

    
    <glyph glyph-name="xiaoxi" unicode="&#59034;" d="M513.024-105.828174A111.88313 111.88313 0 0 1 625.39687 5.565217H400.695652a111.88313 111.88313 0 0 1 112.328348-111.393391z m-320.823652 489.293913v-5.030956c0-43.408696-13.445565-84.591304-36.062609-122.301218-8.013913-13.312-16.562087-25.154783-25.065739-35.350261-4.897391-5.921391-8.592696-9.794783-10.329043-11.486608l-3.250087-3.650783C57.433043 127.065043 96.478609 50.086957 196.118261 50.086957h634.434782c99.906783 0 135.43513 75.063652 74.306783 153.11026l-1.736348 2.181566-2.048 1.869913a180.535652 180.535652 0 0 0-11.53113 11.976347 298.206609 298.206609 0 0 0-27.603478 36.151653c-24.709565 38.021565-39.357217 79.070609-39.357218 121.366261 0 2.31513 0 4.630261 0.089044 6.945391l-0.044522 76.755478c0 132.096-84.591304 258.626783-189.350957 283.202783C624.951652 804.552348 571.65913 851.478261 507.458783 851.478261 437.426087 851.478261 395.931826 803.84 382.085565 744.136348 268.332522 695.785739 192.333913 585.238261 192.333913 460.443826v-63.933217c-0.133565-3.116522-0.133565-6.233043-0.089043-13.089392z m65.80313 72.525913c0 105.427478 67.31687 198.210783 166.199652 232.848696l21.99374 7.657739v29.028174c0 33.124174 27.38087 60.237913 61.261913 60.237913 33.836522 0 61.217391-27.113739 61.217391-60.237913v-29.028174l21.993739-7.702261C689.508174 654.202435 756.869565 561.374609 756.869565 455.94713l0.089044-77.06713-0.089044-7.568696c0-56.765217 18.788174-109.968696 49.775305-158.230261 18.432-28.672 36.953043-49.597217 49.997913-61.618086l-3.739826 4.096c28.093217-36.285217 22.216348-48.88487-22.394435-48.88487H196.118261c-45.456696 0-53.426087 15.894261-26.178783 52.001391l-3.250087-3.695304c12.02087 11.798261 29.072696 32.411826 45.946435 60.816696 28.226783 47.549217 45.278609 100.396522 45.278609 157.250782v5.431652l0.044522 11.842783V455.991652z"  horiz-adv-x="1024" />

    
    <glyph glyph-name="xiansuo1" unicode="&#59180;" d="M612.279914 70.002586c-20.736277-4.674463-40.821731-9.41544-61.009515-13.67751-13.059434-2.756787-26.217105-5.158487-39.423895-7.076163-10.800997-1.568728-21.720697-2.548032-32.623002-3.145643-17.926278-0.982374-35.897581-2.278903-53.820789-1.935072-28.591175 0.548492-56.710606 5.111414-83.504856 15.471366-20.576641 7.956206-39.118949 19.422352-53.888327 36.164665-12.490475 14.159488-20.911262 30.345122-24.538883 49.095161-6.244214 32.281217-3.158946 63.355957 10.233062 93.472882 8.232498 18.512632 19.189038 35.154661 32.470529 50.38862 18.723434 21.475104 39.513946 40.673351 63.411215 56.19793 19.164478 12.450567 38.607296 24.532743 58.449204 35.863812 30.070876 17.173125 62.170968 29.878494 94.544282 42.095747 21.680788 8.182356 42.380226 18.811438 61.97654 31.473829 16.457834 10.634198 32.064276 22.288632 45.469588 36.552497 16.808828 17.885346 29.619598 38.124296 36.124755 62.250786 5.597485 20.760836 3.193739 40.238446-5.811355 59.395762-7.591909 16.150842-17.08819 30.81482-30.44643 42.893926-10.460236 9.458419-22.318308 16.564257-35.252898 21.848611-16.195867 6.615675-33.118282 10.466376-50.610678 11.280927-13.390985 0.623193-26.868951 1.708921-40.197514 0.860601-26.736944-1.700735-53.05945-6.571672-79.017658-13.274328-3.485381-0.899486-4.469801-2.072195-4.024664-6.548137 1.502213-15.125489 3.068895-30.474059 2.064009-45.567825-1.576915-23.686469-8.759501-46.020126-20.751626-66.822918-8.309246-14.415314-18.063401-27.584242-30.127158-38.895868-23.575952-22.10546-51.164287-36.492122-83.089394-42.695405-14.422478-2.802836-28.912493-3.75758-43.377949-2.75781-26.003234 1.797949-50.314942 9.448186-73.036434 22.611997-16.189727 9.379625-29.875424 21.578458-42.028209 35.373649-15.396665 17.47807-26.096355 37.758975-32.840965 60.228733-5.437849 18.11866-7.619538 36.505425-6.952343 55.270814 0.719384 20.23588 5.288446 39.630602 13.124926 58.351989 8.897647 21.255093 21.99085 39.485293 38.422077 55.45194 15.969717 15.517415 34.622542 26.804483 55.293328 34.874275 15.536858 6.066159 31.645744 9.049097 48.291866 10.396791 27.380604 2.216481 53.253878-2.829442 78.347392-13.461593 23.417339-9.920954 42.652426-25.439392 59.558467-44.044122 4.592598-5.054109 8.601912-10.722202 12.276605-16.492626 1.90028-2.983961 3.38612-3.309372 6.699586-2.565429 20.152992 4.52506 40.287565 9.261944 60.626799 12.777002 13.869892 2.397606 28.05087 3.093455 42.119283 4.218068 8.602935 0.687662 17.290805 1.407046 25.88146 0.963954 30.705326-1.585101 60.72606-6.219655 89.357144-18.587334 24.806989-10.715039 45.87891-26.247804 63.351863-46.429448 17.486256-20.196994 29.013801-43.869137 37.033452-69.355601 5.105275-16.226566 5.686513-32.531927 4.198625-49.344849-1.978051-22.361287-8.613168-43.199894-18.756179-62.931284-7.897877-15.363919-17.996886-29.286-29.395494-42.406832-21.23565-24.442692-46.844911-43.333948-74.487482-59.480696-22.647813-13.229303-46.544059-24.065092-71.241554-33.135678-14.06432-5.16565-27.809369-11.248182-41.518602-17.322528-28.943193-12.82612-56.401568-28.360931-82.731236-45.937238-20.602224-13.754259-39.364543-29.723975-55.799864-48.152697-14.777565-16.569374-26.815739-35.052331-31.887245-57.180304-4.189416-18.279319-3.678786-36.377512 4.65809-53.419653 5.411243-11.059893 15.126512-18.355043 25.745361-24.14491 16.172331-8.81783 33.539884-13.992689 51.886741-15.70161 12.233626-1.13894 24.511253-3.102664 36.727482-2.833535 17.657148 0.388856 35.303041 2.199085 52.909024 3.878331 35.509748 3.38612 70.010517 12.076036 104.553241 20.481473 6.499018 1.581008 7.270591 2.76395 7.399527 9.726526 0.38988 21.025872 5.542226 40.891316 13.906731 60.156078 9.925047 22.858614 24.743544 42.071188 43.322692 58.202586 21.385053 18.567891 45.987381 31.452339 74.123184 36.541241 10.698666 1.935072 21.584598 3.928472 32.392758 3.968382 36.477796 0.135076 69.959352-10.090822 99.719142-31.534204 20.070104-14.461363 36.068474-32.522718 48.176233-54.172807 9.223059-16.491603 15.488763-34.043351 18.611893-52.500724 2.441609-14.431687 2.907213-29.059849 1.526773-43.880393-2.096754-22.518876-8.216125-43.598984-18.744923-63.436798-10.465352-19.717064-24.77629-36.314067-41.896203-50.623981-20.571525-17.195637-44.156686-28.167526-70.145593-33.837666-17.20587-3.75451-34.666544-4.295839-52.321646-2.545986-21.092387 2.089591-40.974203 7.871271-59.608609 17.645892-21.060665 11.04659-39.063691 25.842575-53.837163 44.744064-11.252275 14.391778-19.688411 30.153764-26.238594 46.686298zM257.308297 749.035834c-61.466933 0.095167-110.242823-49.572022-110.064768-109.428272 0.183172-61.72583 48.50983-109.970624 109.608373-110.200868 61.083194-0.230244 108.083647 48.218188 109.942995 106.48729 2.02103 63.346747-50.643424 113.863281-109.4866 113.14185z m512.522909-512.676406c-61.041238 0.604774-108.540042-49.806359-110.193704-105.262392-1.961678-65.792449 49.825802-114.454752 109.202121-114.416889 61.065797 0.037862 109.783359 47.596018 110.304221 109.490693 0.502443 59.860343-47.50392 109.675912-109.312638 110.188588z"  horiz-adv-x="1024" />

    
    <glyph glyph-name="shoucang" unicode="&#58941;" d="M248.986931-128c-16.896 0-33.28 5.12-47.616 15.36-26.624 18.432-39.424 49.664-34.304 81.92l40.96 251.904c1.536 10.24-1.536 20.48-8.704 27.648L23.706931 429.568C1.690931 452.096-5.477069 484.864 4.250931 514.56c9.728 29.696 35.328 51.2 66.048 55.808l237.568 36.352c10.752 1.536 19.456 8.192 24.064 17.92L436.890931 847.872C450.714931 877.568 479.386931 896 512.154931 896c32.768 0 61.44-18.432 75.264-48.128L691.866931 624.64c4.608-9.728 13.824-16.384 24.064-17.92l237.568-36.352c30.72-4.608 56.32-26.112 66.048-55.808 10.24-29.696 2.56-62.464-19.456-84.992L824.474931 248.832c-7.168-7.168-10.24-17.92-8.704-27.648l40.96-251.904c5.12-31.744-8.192-63.488-34.304-81.92-26.112-18.432-59.904-20.48-88.064-4.608L527.514931-2.56c-9.728 5.12-20.992 5.12-30.72 0L289.434931-117.76c-12.8-6.656-26.624-10.24-40.448-10.24zM512.154931 844.8c-12.8 0-23.552-7.168-29.184-18.432L379.034931 603.136c-11.776-25.088-35.328-43.008-62.976-47.104l-237.568-36.352c-12.288-2.048-21.504-9.728-25.6-21.504-4.096-11.776-1.024-24.064 7.68-32.768l175.616-180.736c18.432-18.944 26.624-45.568 22.528-71.68l-40.96-251.904c-2.048-12.8 3.072-24.576 13.312-31.744 10.24-7.168 23.04-7.68 33.792-1.536l207.36 115.2c25.088 13.824 55.296 13.824 80.384 0l207.36-115.2c10.752-6.144 23.552-5.632 33.792 1.536 10.24 7.168 15.36 18.944 13.312 31.744l-40.96 251.904c-4.096 26.112 4.096 52.736 22.528 71.68l175.616 180.736c8.704 8.704 11.264 20.992 7.68 32.768-4.096 11.776-13.312 19.968-25.6 21.504l-237.568 36.352c-27.648 4.096-51.2 22.016-62.976 47.104l-104.448 223.232c-5.632 11.264-16.384 18.432-29.184 18.432z"  horiz-adv-x="1024" />

    
    <glyph glyph-name="youjian" unicode="&#58977;" d="M880.885 28.536172l-731.019249 0c-21.98778 0-42.549072 8.867972-57.893548 24.968671l36.263925 36.077683c5.469572-5.265934 12.543687-8.165983 19.919678-8.165983l731.019249 0c16.337083 0 29.628808 14.062274 29.628808 31.346939L908.803863 672.963251c0 8.387018-3.102664 16.272615-8.735965 22.204721l36.32123 36.020378c16.07307-15.521508 25.292036-37.369096 25.292036-59.939137l0-560.198745C961.680141 65.551204 925.435659 28.536172 880.885 28.536172zM92.747869 52.725084c-16.135492 15.533788-25.38925 37.416168-25.38925 60.038398L67.358619 672.963251c0 24.615631 10.640338 47.758724 29.191856 63.49615 14.458293 12.263301 32.785707 19.017122 51.603285 19.017122l731.019249 0c22.042016 0 42.638099-8.905834 57.993832-25.075095l-36.32123-36.019355c-0.720408 0.695848-1.471514 1.352811-2.246157 1.966795L515.375375 313.123766l-383.238404 383.238404c-0.261966-0.207731-0.520863-0.419556-0.775666-0.636496-7.071046-5.997598-11.126408-14.918781-11.126408-24.477484l0-560.198745c0-8.407484 3.115967-16.308431 8.774851-22.245653L92.747869 52.725084zM196.54591 704.311213L515.375375 385.482771l318.828442 318.828442L196.54591 704.311213zM879.174032 30.251234L148.154783 30.251234c-20.677948 0-40.355103 7.981788-55.407937 22.473851l-0.775666 0.780783c-14.768355 15.495926-22.901593 35.931351-22.901593 57.543577l0 560.198745c0 24.615631 10.640338 47.758724 29.192879 63.49615 9.785877 8.30106 21.502733 14.187117 33.883715 17.019629l13.791098 3.154853L515.375375 385.482771l369.423771 369.423771 13.791098-3.15383c14.144138-3.234671 27.214828-10.346649 37.798884-20.566408l0.779759-0.785899c14.702863-15.481599 22.800285-35.881209 22.800285-57.438177l0-560.199769C959.96815 67.266265 923.723667 30.251234 879.174032 30.251234zM128.634194 89.20595c5.41329-5.027503 12.322653-7.789407 19.520589-7.789407l731.019249 0c16.338107 0 29.628808 14.062274 29.628808 31.346939L908.80284 672.963251c0 8.196683-2.963495 15.915481-8.357342 21.798469-0.596588 0.555655-1.213641 1.085728-1.846044 1.586125L515.375375 313.123766l-383.238404 383.238404c-0.261966-0.207731-0.51984-0.419556-0.775666-0.635473-7.071046-5.997598-11.126408-14.919804-11.126408-24.478508l0-560.198745C120.23592 102.831272 123.213741 95.096101 128.634194 89.20595z"  horiz-adv-x="1024" />

    
    <glyph glyph-name="shoucang1" unicode="&#59071;" d="M817.9962-127.317335c-12.891861 0-25.809978 3.203273-39.804606 10.660072L560.841643-3.544966a42.666546 42.666546 0 0 1-21.530196 5.330036c-7.509312 0-16.12139-2.126763-21.530196-4.253527l-216.247185-114.188806a78.060088 78.060088 0 0 0-40.881115-10.660072c-25.836235 0-50.569704 11.736582-67.79386 30.929964-17.224157 19.219638-23.683215 44.819566-19.377176 70.419493l41.983881 239.037685a47.65525 47.65525 0 0 1-13.994627 40.539783l-174.315816 167.515425c-24.733469 23.499421-33.345547 57.658914-22.580449 89.665388a88.693904 88.693904 0 0 0 70.997133 59.759422l241.033166 35.18349c15.044881 2.15302 29.039508 11.762839 35.498567 24.549674l107.598466 217.691284A87.223549 87.223549 0 0 0 538.261194 895.997112c33.345547 0 63.461565-18.116872 78.532701-48.022839l107.598466-217.665027c7.535568-13.889602 20.453686-22.422911 35.498567-24.549675l241.033166-35.209746c33.345547-5.356293 60.258292-27.752947 71.023389-58.709168 10.765098-32.006474 2.15302-66.165967-21.530195-89.612876l-173.239307-168.618191c-11.815351-10.660072-16.147647-25.599928-13.994627-40.539783l40.907372-237.961175c4.306039-25.599928-2.15302-51.199856-19.377176-70.419493a85.438118 85.438118 0 0 0-66.691094-32.032731z m-13.968371 65.089457c5.356293-2.15302 9.662332-3.203273 12.891861-3.203273 7.535568 0 15.071137 3.203273 20.453686 9.609819a25.494902 25.494902 0 0 1 5.382549 20.269892l-40.881116 237.961175c-6.459059 34.133237 5.382549 71.496003 31.192527 94.969168l173.239307 169.642188c6.459059 6.406546 8.612078 16.016365 6.459058 26.676438a24.260855 24.260855 0 0 1-21.530195 17.066618l-241.033167 35.236003c-35.498567 5.330036-66.691094 26.676438-81.76223 58.682912l-107.598466 216.614773c-4.306039 9.609819-12.918117 13.863346-22.580449 13.863346-9.714844 0-18.300666-5.330036-23.683216-14.913599l-107.598465-215.56452c-15.071137-30.929964-46.263664-53.352875-81.788488-58.682912l-241.00691-35.209747a27.831716 27.831716 0 0 1-20.453686-17.066618v-1.07651c-3.229529-9.609819-1.050253-18.143128 6.459059-25.626184l174.315816-169.642188c25.836235-24.549674 36.575076-59.759421 31.192528-94.969168L234.816716-35.577697c-1.050253-5.330036-1.050253-12.813092 5.382549-19.219638 5.382549-6.406546 12.918117-9.609819 20.453686-9.609819 5.382549 0 8.612078 1.07651 11.815351 2.15302l217.349951 113.112296c13.994627 8.533309 31.218784 12.786836 49.51945 12.786836 16.12139 0 33.345547-4.253526 49.493194-12.786836l215.196932-113.112296z"  horiz-adv-x="1076" />

    
    <glyph glyph-name="shoucang2" unicode="&#58914;" d="M518.274 825.414c-8.132 0-15.661-4.819-19.275-12.649l-119.868-259.253-25.48-3.915-250.82-38.852c-8.369-1.518-14.992-7.642-17.212-15.602-0.588-1.64-1.022-4.156-1.022-6.773 0-6.151 2.401-11.742 6.318-15.886l200.393-208.644-3.795-23.733-42.647-265.216c-0.21-1.167-0.33-2.509-0.33-3.88 0-7.572 3.658-14.291 9.303-18.484 3.399-2.471 7.579-3.927 12.099-3.927 3.944 0 7.629 1.108 10.761 3.031l241.574 131.202 242.025-131.494c2.957-1.708 6.505-2.716 10.288-2.716 4.496 0 8.659 1.423 12.063 3.844 5.643 4.194 9.301 10.912 9.301 18.484 0 1.371-0.12 2.714-0.35 4.018l-42.626 265.138-3.795 23.733 200.523 208.655c3.916 4.117 6.324 9.7 6.324 15.844 0 2.629-0.441 5.155-1.253 7.508-2.498 7.829-9.313 13.74-17.65 14.934l-275.707 42.731-10.842 23.492-109.086 235.881c-3.373 7.478-10.742 12.599-19.313 12.65zM518.274 873.603c26.985 0 51.561-15.842 63.006-40.659l109.026-235.821 250.76-38.852c25.781-4.036 47.164-22.347 55.477-47.465 8.312-25.118 2.048-52.826-16.143-71.68l-183.838-191.307 42.647-265.276c4.337-26.744-6.746-53.549-28.491-69.15-11.148-8.027-25.079-12.838-40.134-12.838-12.358 0-23.959 3.242-33.999 8.921l-218.31 118.605-218.654-118.784c-9.686-5.522-21.283-8.778-33.641-8.778-15.045 0-28.962 4.825-40.289 13.013-17.783 12.947-29.34 33.925-29.34 57.601 0 4.051 0.338 8.022 0.988 11.888l42.589 264.798-183.657 191.307c-12.282 12.791-19.845 30.194-19.845 49.364 0 7.98 1.311 15.654 3.729 22.819 8.225 24.615 29.609 42.987 55.39 46.963l250.82 38.852 108.905 235.881c11.445 24.696 36.021 40.599 63.006 40.599z"  horiz-adv-x="1024" />

    
    <glyph glyph-name="shangchuan1" unicode="&#58881;" d="M994 448h-68c-16.568 0-30-13.432-30-30v-418H128V418c0 16.568-13.432 30-30 30H30c-16.568 0-30-13.432-30-30v-516c0-16.568 13.432-30 30-30h964c16.568 0 30 13.432 30 30V418c0 16.568-13.432 30-30 30zM448 640v-416c0-17.672 14.328-32 32-32h64c17.672 0 32 14.328 32 32V640h192L512 896 256 640h192z"  horiz-adv-x="1024" />

    
    <glyph glyph-name="cross" unicode="&#58917;" d="M768.992 56.458c-15.595 0-31.187 6.237-43.677 18.72l-530.309 530.309c-24.954 24.954-24.954 62.395 0 87.343s62.395 24.954 87.343 0l530.309-530.309c24.954-24.954 24.954-62.395 0-87.343-12.485-12.485-28.081-18.72-43.677-18.72zM238.682 56.458c-15.595 0-31.187 6.237-43.677 18.72-24.954 24.954-24.954 62.395 0 87.343l530.309 530.309c24.954 24.954 62.395 24.954 87.343 0s24.954-62.395 0-87.343l-530.309-530.309c-12.485-12.485-28.081-18.72-43.677-18.72z"  horiz-adv-x="1024" />

    
    <glyph glyph-name="zhinengfenxi" unicode="&#59155;" d="M531.2 416l76.8-76.8c6.4 12.8 19.2 25.6 32 32L556.8 454.4c-6.4-12.8-12.8-25.6-25.6-38.4zM832 576l-83.2-185.6c19.2 0 32-6.4 44.8-19.2l76.8 179.2c-12.8 6.4-25.6 19.2-38.4 25.6z m-108.8-428.8c57.6 0 102.4 44.8 102.4 102.4 0 57.6-44.8 102.4-102.4 102.4-57.6 0-102.4-44.8-102.4-102.4 6.4-57.6 51.2-102.4 102.4-102.4z m0 147.2c25.6 0 51.2-25.6 51.2-51.2s-19.2-51.2-51.2-51.2-51.2 25.6-51.2 51.2c0 32 25.6 51.2 51.2 51.2z m198.4 300.8c57.6 0 102.4 44.8 102.4 102.4 0 57.6-44.8 102.4-102.4 102.4s-102.4-44.8-102.4-102.4c6.4-57.6 51.2-102.4 102.4-102.4z m0 153.6c25.6 0 51.2-25.6 51.2-51.2s-19.2-51.2-51.2-51.2c-25.6 0-51.2 25.6-51.2 51.2 6.4 25.6 25.6 51.2 51.2 51.2zM300.8 441.6L192 313.6c12.8-12.8 25.6-25.6 32-38.4l108.8 128c-12.8 12.8-25.6 25.6-32 38.4z m-102.4-243.2c0 57.6-44.8 102.4-102.4 102.4-51.2-6.4-96-51.2-96-102.4 0-57.6 44.8-102.4 102.4-102.4 51.2 0 96 44.8 96 102.4z m-147.2 0c0 25.6 19.2 51.2 51.2 51.2s51.2-25.6 51.2-51.2-19.2-51.2-51.2-51.2-51.2 19.2-51.2 51.2z m896-128c0-25.6-19.2-51.2-51.2-51.2H198.4c-19.2 0-38.4 12.8-44.8 32-19.2-6.4-32-6.4-51.2-6.4 0-38.4 32-76.8 76.8-76.8h748.8c38.4 0 76.8 32 76.8 76.8V563.2c-12.8-6.4-32-12.8-51.2-19.2v-473.6zM147.2 672c0 25.6 19.2 51.2 51.2 51.2h576c0 19.2 6.4 32 19.2 51.2H172.8c-38.4 0-76.8-32-76.8-76.8v-352c19.2 0 32 0 51.2-6.4V672z m275.2-249.6c57.6 0 102.4 44.8 102.4 102.4 0 57.6-44.8 102.4-102.4 102.4-51.2-6.4-96-51.2-96-102.4 0-57.6 44.8-102.4 96-102.4z m0 147.2c25.6 0 51.2-25.6 51.2-51.2s-19.2-51.2-51.2-51.2c-25.6 0-51.2 25.6-51.2 51.2 6.4 32 25.6 51.2 51.2 51.2z"  horiz-adv-x="1024" />

    
    <glyph glyph-name="che" unicode="&#58913;" d="M926.39 459.38a137.15 137.15 0 0 1-62.87 43.85l-66.67 160.5c-16.78 40.4-56.85 70.87-93.15 70.87H320c-18 0-37.7-7.66-55.34-21.58a125.36 125.36 0 0 1-37.8-49.29l-66.68-160.44a136 136 0 0 1-93-129.07v-248.46h126.19v-31.92a80.08 80.08 0 1 1 160.17 0v31.92h316.54v-31.92a80.08 80.08 0 1 1 160.17 0v31.92h126.18V374.21a136.29 136.29 0 0 1-30.04 85.17z m-18-285.61H782.25v-79.92a32.2 32.2 0 0 0-32.08-32.25 31.83 31.83 0 0 0-32.08 32.25v79.91H305.54v-79.92a32.2 32.2 0 0 0-32.08-32.25 31.82 31.82 0 0 0-32.08 32.25v79.92h-126.2V374.21a87.06 87.06 0 0 0 19.42 55.19 88.41 88.41 0 0 0 48.78 30.6l12.86 3 4.39 12.45c0.19 0.53 0.4 1.08 0.63 1.63l69.9 168.27C281 668.94 305 686.6 320 686.6h383.7c18.13 0 40.72-21.79 48.82-41.28L822.42 477c0.22-0.54 0.43-1.09 0.63-1.63l4.37-12.37 12.84-3A88.65 88.65 0 0 0 889 429.28a86.94 86.94 0 0 0 19.43-55.07zM273.45 426.14a94.1 94.1 0 1 1 94.1-94.1 94.21 94.21 0 0 1-94.1 94.1z m0-140.21a46.1 46.1 0 1 0 46.1 46.1 46.16 46.16 0 0 0-46.1-46.1zM750.16 426.14a94.1 94.1 0 1 1 94.1-94.1 94.21 94.21 0 0 1-94.1 94.1z m0-140.21a46.1 46.1 0 1 0 46.1 46.1 46.16 46.16 0 0 0-46.1-46.1zM302 480.4h426.27a24 24 0 0 1 22.64 32l-33.69 95.77c-10 28.49-38.3 47.63-70.37 47.63H380a77.11 77.11 0 0 1-43.7-13.32 69.91 69.91 0 0 1-27.36-36.33l-29.84-94.47A24 24 0 0 1 302 480.4z m52.7 111.24c3 9.49 13.39 16.11 25.28 16.11h266.86c11.55 0 21.87-6.4 25.09-15.56l22.45-63.8H334.72z"  horiz-adv-x="1024" />

    
    <glyph glyph-name="shuju" unicode="&#59051;" d="M512 875.52c-225.28 0-409.6-73.728-409.6-178.176V70.656c0-102.4 184.32-178.176 409.6-178.176s409.6 73.728 409.6 178.176V697.344c0 104.448-184.32 178.176-409.6 178.176z m0-40.96c204.8 0 368.64-65.536 368.64-137.216 0-69.632-163.84-137.216-368.64-137.216s-368.64 65.536-368.64 137.216 163.84 137.216 368.64 137.216z m368.64-763.904c0-69.632-163.84-137.216-368.64-137.216s-368.64 65.536-368.64 137.216v131.072c65.536-59.392 206.848-98.304 368.64-98.304s303.104 38.912 368.64 98.304v-131.072z m-368.64 71.68c-204.8 0-368.64 65.536-368.64 137.216v131.072c65.536-59.392 206.848-98.304 368.64-98.304s303.104 38.912 368.64 98.304v-131.072c0-69.632-163.84-137.216-368.64-137.216z m0 208.896c-204.8 0-368.64 65.536-368.64 137.216V619.52c65.536-59.392 206.848-98.304 368.64-98.304s303.104 38.912 368.64 98.304v-131.072c0-69.632-163.84-137.216-368.64-137.216zM796.672 490.496m-24.576 0a24.576 24.576 0 1 1 49.152 0 24.576 24.576 0 1 1-49.152 0ZM796.672 283.648m-24.576 0a24.576 24.576 0 1 1 49.152 0 24.576 24.576 0 1 1-49.152 0ZM796.672 74.752m-24.576 0a24.576 24.576 0 1 1 49.152 0 24.576 24.576 0 1 1-49.152 0Z"  horiz-adv-x="1024" />

    
    <glyph glyph-name="dianhua" unicode="&#58923;" d="M280.037 160.842c186.517-177.067 404.065-248.878 518.064-201.754 55.786 23.06 88.544 43.858 105.447 75.087 23.047 42.581 6.588 91.103-48.034 145.351-75.769 75.251-127.718 83.618-185.054 42.421-4.763-3.422-9.514-7.075-15.772-12.058 0.216 0.173-11.725-9.4-15.127-12.072a418.647 418.647 0 0 0-7.904-6.074c-18.41-13.778-23.458-17.207-29.467-19.704-17.225-7.156-44.311 8.9-156.461 102.736-135.439 113.322-142.281 126.44-114.644 164.689 4.747 6.569 10.562 13.401 25.103 30.129 61.064 71.761 67.259 133.065-13.987 213.447-55.887 55.292-105.807 73.625-152.383 56.667-33.993-12.377-56.03-35.519-93.822-87.926-71.158-98.679-4.796-311.669 184.041-490.939zM207.63 690.787c24.566 8.945 54.96-2.218 97.956-44.756 59.212-58.583 56.069-89.68 10.953-142.7-14.112-16.181-21.491-24.851-27.652-33.377-50.04-69.253-30.874-105.997 123.434-235.107 132.515-110.876 164.387-129.769 209.842-110.885 11.764 4.888 18.04 9.151 40.687 26.099a480.766 480.766 0 0 1 8.871 6.816c3.64 2.859 15.794 12.601 15.399 12.287 5.643 4.494 9.784 7.678 13.718 10.504 35.109 25.226 59.153 21.354 117.989-37.081 40.068-39.794 48.773-65.456 38.935-83.631-9.254-17.098-34.533-33.147-79.55-51.756-91.991-38.026-289.252 27.087-462.332 191.398C143.668 362.086 85.622 548.386 138.223 621.33c31.473 43.645 48.966 62.014 69.407 69.457zM563.961 667.64c-14.376 0-26.03-11.654-26.03-26.03s11.654-26.03 26.03-26.03c100.633 0 182.213-81.58 182.213-182.213 0-14.376 11.654-26.03 26.03-26.03 14.376 0 26.03 11.654 26.03 26.03 0.001 129.385-104.887 234.273-234.273 234.273zM563.961 823.823c-14.376 0-26.03-11.654-26.03-26.03s11.654-26.03 26.03-26.03c186.891 0 338.396-151.505 338.396-338.396 0-14.376 11.654-26.03 26.03-26.03 14.376 0 26.03 11.654 26.03 26.03 0.001 215.643-174.813 390.456-390.456 390.456z"  horiz-adv-x="1024" />

    
    <glyph glyph-name="yonghu" unicode="&#59033;" d="M604.672-79.36h-185.856c-174.592 0-312.832 0-312.832 88.576v18.432c0 169.984 140.288 308.224 312.832 308.224h185.856c172.544 0 312.832-138.24 312.832-308.224v-18.432c0-88.576-144.896-88.576-312.832-88.576z m-101.888 438.784c-136.704 0-247.808 109.568-247.808 244.224 0 134.656 111.104 244.224 247.808 244.224s247.808-109.568 247.808-244.224-111.104-244.224-247.808-244.224z"  horiz-adv-x="1024" />

    
    <glyph glyph-name="cha" unicode="&#58939;" d="M588.701 396.452l207.63 207.63c23.394 23.394 23.394 58.495 0 81.884s-58.495 23.394-81.884 0l-207.63-207.63-207.63 207.63c-23.394 23.394-58.495 23.394-81.884 0s-23.394-58.495 0-81.884l207.63-207.63-207.63-207.63c-23.394-23.394-23.394-58.495 0-81.884 11.705-11.705 26.326-17.55 40.947-17.55s29.238 5.847 40.947 17.55l207.63 207.63 207.63-207.63c11.705-11.705 26.326-17.55 40.947-17.55s29.238 5.847 40.947 17.55c23.394 23.394 23.394 58.495 0 81.884l-207.63 207.63z"  horiz-adv-x="1024" />

    
    <glyph glyph-name="shezhi" unicode="&#58892;" d="M968.128 503.616a82.944 82.944 0 0 1-58.944 25.088h-0.064l-5.76-0.192c-14.592 0-49.472 3.456-59.648 35.52-9.408 30.016 11.264 67.136 11.2 67.136a83.84 83.84 0 0 1-23.04 116.032l-107.52 71.68c-37.056 24.832-90.368 15.68-117.824-26.432-0.256-0.576-24.96-58.752-74.816-60.096-53.568 0-75.712 66.624-77.312 70.528C433.344 842.176 380.608 858.24 341.056 836.928l-113.664-61.44c-40.512-21.888-55.68-72.704-31.616-116.544 12.672-15.04 45.44-64.832 29.824-95.424-20.864-40.96-96.768-28.288-108.8-27.2-45.568 0-83.072-37.12-83.648-82.816L32 324.224c-0.256-22.272 8.256-43.392 23.936-59.328 15.616-15.936 36.48-24.768 58.88-25.024 1.92 0.128 3.648 0.192 5.376 0.768 0.192 0 18.624 5.184 39.04 5.184 24.064 0 39.488-6.72 45.76-20.032 12.032-25.472-21.568-71.936-36.032-88.32A83.84 83.84 0 0 1 192 21.504l107.584-71.872c37.12-24.704 90.304-15.296 117.504 25.472 0.256 0.768 35.648 69.824 81.344 64.192 51.776-6.592 69.184-68.928 70.976-73.728a83.84 83.84 0 0 1 113.408-33.92l113.6 61.312c40.512 21.888 55.744 72.704 31.424 116.928-1.728 1.984-42.048 48.704-12.928 96.896 22.912 38.144 80.256 26.56 92.16 25.472 45.568 0 83.008 37.12 83.584 82.816l1.28 129.152c0.32 22.4-8.192 43.52-23.808 59.392z m-15.36-188.032c-0.32-24.96-20.736-45.248-42.24-45.696a164.48 164.48 0 0 1-32 3.008c-43.968 0-78.08-16.512-96.064-46.4-35.072-57.984-4.16-118.208 14.464-138.112a45.632 45.632 0 0 0-18.496-61.888l-113.536-61.376c-21.76-11.648-51.072-1.024-60.224 14.4-0.96 3.584-24 87.808-101.312 97.536a85.44 85.44 0 0 1-10.624 0.704c-68.224 0-108.288-82.752-108.544-83.84a47.168 47.168 0 0 0-63.36-12.672l-107.52 71.808c-20.864 13.952-26.432 42.304-14.144 61.184 6.72 7.424 65.216 75.008 40.384 127.744-8.96 19.072-30.208 41.792-80.128 41.792-20.672 0-39.232-4.032-46.4-5.824a45.632 45.632 0 0 0-43.008 45.952l1.216 129.216c0.32 24.96 20.8 45.248 42.816 45.568a230.4 230.4 0 0 1 38.208-3.072c53.312 0 90.432 17.536 107.328 50.752 30.208 59.2-31.936 133.888-32.512 133.888a45.696 45.696 0 0 0 18.368 61.824l113.664 61.376c21.824 11.776 50.88 1.408 60.48-15.232 1.28-3.84 30.592-93.76 115.008-93.76h0.064c72.32 1.92 105.664 80.128 105.344 80.192a46.784 46.784 0 0 0 63.296 12.672l107.456-71.68a46.08 46.08 0 0 0 11.904-64.384c-1.152-2.112-29.824-52.224-15.104-98.688 21.376-68.032 98.496-62.208 101.888-61.888a45.312 45.312 0 0 0 31.552-13.632 45.056 45.056 0 0 0 13.056-32.384l-1.28-129.088zM512 550.016a166.016 166.016 0 0 1-165.824-165.696A166.016 166.016 0 0 1 512 218.56a165.888 165.888 0 0 1 165.696 165.76A165.888 165.888 0 0 1 512 550.016z m0-293.44a127.936 127.936 0 0 0-127.808 127.744C384.192 454.656 441.472 512 512 512c70.4 0 127.68-57.344 127.68-127.68A127.872 127.872 0 0 0 512 256.576z"  horiz-adv-x="1024" />

    
    <glyph glyph-name="shangchuan2" unicode="&#58902;" d="M982.1 393.3c-22.2 0-40.3-18.1-40.3-40.3v-326.6H82V352.9c0 22.2-18.1 40.3-40.3 40.3-22.2 0-40.3-18.1-40.3-40.3V-14c0-22.2 18.1-40.3 40.3-40.3h940.4c22.2 0 40.3 18.1 40.3 40.3V352.9c0 22.3-18.1 40.4-40.3 40.4zM317.4 547.2c10.3 0 20.7 3.9 28.5 11.8l125.5 125.5v-422.9c0-22.2 18.1-40.3 40.3-40.3 22.2 0 40.3 18.1 40.3 40.3V684.8L677.9 559c7.9-7.9 18.2-11.8 28.5-11.8s20.7 3.9 28.5 11.8c15.7 15.7 15.7 41.3 0 57L540.4 810.5c-15.7 15.7-41.3 15.7-57 0L288.9 616c-15.7-15.7-15.7-41.3 0-57 7.9-7.9 18.2-11.8 28.5-11.8z"  horiz-adv-x="1024" />

    
    <glyph glyph-name="qq" unicode="&#58883;" d="M537.407-2.774H486.634c-6.342 0-19.024 0-25.365-6.298-25.365-25.407-69.753-38.09-126.825-38.09-38.047 0-69.753 6.383-101.462 19.024-25.365 12.681-38.047 25.407-38.047 44.39 0 19.024 12.681 31.705 44.39 44.432 19.024 6.298 25.365 12.639 25.365 25.407 0 12.639 0 25.323-6.342 31.705-12.681 12.556-19.024 31.622-31.705 44.262-6.342 12.681-19.024 19.065-31.705 19.065-12.681 0-19.024-6.383-31.705-12.768-12.681-12.639-19.024-18.939-25.365-18.939-6.342 0-12.639 18.939-12.639 50.646s6.299 69.796 12.598 107.887c12.681 38.005 31.705 69.711 63.412 101.418 6.342 6.298 12.681 19.024 12.681 31.705v12.639c0 19.065 6.342 38.047 19.024 57.072 6.342 6.342 6.342 12.681 6.342 19.024v6.342c0.042 76.138 25.365 139.55 82.479 196.622 50.731 57.114 114.142 82.437 190.238 82.437 76.095 0 139.508-25.365 196.579-82.437 50.772-57.072 82.479-120.484 82.479-196.537v-6.342c0-6.342 0-12.681 6.298-19.024 12.681-19.024 19.024-38.005 19.024-57.072v-12.639c0-12.681 0-25.407 12.681-31.705 31.705-31.705 50.731-63.412 63.412-101.418 12.681-38.09 19.024-76.179 12.681-107.887 0-31.705-6.342-44.345-18.983-50.646-6.342 0-12.725 6.299-25.407 18.939-6.299 6.342-19.024 12.768-31.705 12.768h-6.299c-12.725 0-25.407-6.383-31.705-19.065-6.342-19.024-19.065-31.705-31.705-44.345-6.342-6.383-12.725-19.065-6.342-31.705 0-12.768 12.681-19.065 18.983-25.407 31.665-12.768 44.39-25.45 44.39-44.473 0-18.982-12.725-31.705-38.047-44.39-25.365-12.639-63.412-19.024-101.462-19.024-57.072 0-95.119 12.725-126.825 38.09 6.342 0-6.342 6.342-12.639 6.342z m145.808-120.527c63.412 0 114.142 12.681 152.19 38.005 38.047 25.407 63.412 57.114 63.412 101.462 0 25.365-6.299 44.432-18.982 63.412 6.342 0 18.982 0 25.365 6.383 38.047 12.639 57.072 44.345 63.412 95.119 6.342 44.345 0 95.119-18.982 152.149-12.725 44.432-38.047 82.437-69.753 120.484 0 31.705-6.342 57.072-19.024 88.777 0 95.119-31.705 177.556-101.418 247.352C689.553 859.595 607.118 891.304 512 891.304c-95.119 0-177.556-31.705-247.31-101.418-63.455-69.796-101.462-152.233-101.462-247.352-12.681-25.365-19.024-57.072-19.024-88.777v-6.342c-38.047-31.705-57.072-76.095-69.753-114.142-19.024-57.029-25.365-107.802-19.024-152.149 6.342-50.772 31.705-82.479 63.412-95.119 6.342 0 19.024-6.383 25.365-6.383-12.681-18.982-19.024-38.047-19.024-63.412 0-38.047 19.024-76.095 63.412-101.462 38.047-25.365 88.777-38.047 145.848-38.047 63.412 0 120.484 12.681 158.532 44.39h31.705c44.432-31.705 95.119-44.39 158.532-44.39z"  horiz-adv-x="1024" />

    
    <glyph glyph-name="focus" unicode="&#59229;" d="M479.936 745.6c0-0 0-0 0-0 0-17.708 14.356-32.064 32.064-32.064 17.708 0 32.064 14.356 32.064 32.064 0 0 0 0 0 0 0 0 0 0 0 0 0 17.708-14.356 32.064-32.064 32.064-17.708 0-32.064-14.356-32.064-32.064 0-0 0-0 0-0zM900.288 523.008l-19.904-44.608M944.896 480.704c0 16.256-11.264 31.296-26.624 34.496l-259.52 36.8-116.48 230.4c-6.263 9.925-17.171 16.422-29.596 16.422-13.052 0-24.429-7.169-30.41-17.783l-1.37-2.671-0.064-0.128-114.368-226.176-256.64-36.416c-17.38-2.088-30.721-16.745-30.721-34.517 0-0.082 0-0.165 0.001-0.247-0-12.147 6.784-22.323 16.448-28.275l180.608-171.904-43.648-248.512c-1.046-3.079-1.655-6.626-1.669-10.314 0.005-18.166 15.109-33.334 33.797-33.334 8 0 15.040 3.2 20.864 7.872l227.072 116.544 232.832-119.552c4.325-2.237 9.436-3.56 14.854-3.588-0.373 0.004-0.353 0.004-0.333 0.004 18.627 0 33.728 15.101 33.728 33.728 0 1.921-0.161 3.805-0.469 5.638l-44.196 251.45 183.040 174.208c7.801 6.088 12.79 15.465 12.866 26.010zM657.856 315.2l33.984-185.216-177.984 87.488-177.984-87.488 33.984 185.216-144 131.2 198.976 27.008 89.024 168.512 89.024-168.512 198.976-27.008-144-131.2z"  horiz-adv-x="1024" />

    
    <glyph glyph-name="feiji" unicode="&#58991;" d="M863.63 481.347H641.249L497.506 727.442c-8.761 15.186-28.348 26.479-45.948 26.479h-78.774c-23.694 0-39.29-20.872-32.748-43.593l65.884-228.981H263.346l-72.738 72.233a19.472 19.472 0 0 1-13.726 5.646H98.226c-24.337 0-39.328-21.787-30.723-44.526L116.858 384 67.503 253.301c-8.606-22.759 6.425-44.526 30.723-44.526h78.656a19.466 19.466 0 0 1 13.726 5.646l72.738 72.233h142.575l-65.884-228.981c-6.542-22.76 9.17-43.593 32.748-43.593h78.793c17.678 0 37.186 11.292 45.986 26.595l143.74 246.063h103.902c0.556-0.048 1.116-0.085 1.685-0.085h116.836c53.747 0.032 97.307 43.6 97.328 97.347-0.001 53.813-43.534 97.347-97.425 97.347z m0.097-155.756H746.89c-0.217 0-0.427-0.025-0.642-0.032H630.297c-3.695 0-7.145-1.065-10.094-2.876-0.188-0.108-0.37-0.224-0.554-0.338-0.092-0.061-0.186-0.119-0.277-0.182a19.353 19.353 0 0 1-6.101-6.229L463.882 60.222c-1.947-3.368-8.566-7.203-12.305-7.203h-72.368l71.278 247.71a19.469 19.469 0 0 1-18.691 24.862H255.325a19.468 19.468 0 0 1-13.726-5.646l-72.738-72.233h-61.855l48.868 129.414a19.473 19.473 0 0 1 0 13.746l-48.849 129.414h61.855l72.738-72.233a19.472 19.472 0 0 1 13.726-5.646h176.452a19.47 19.47 0 0 1 18.71 24.862l-71.278 247.71h72.349c3.679 0 10.396-3.874 12.246-7.087L613.27 452.063a19.472 19.472 0 0 1 16.803-9.657H863.63a58.369 58.369 0 0 0 58.486-58.408c0-32.2-26.168-58.407-58.389-58.407z"  horiz-adv-x="1024" />

    
    <glyph glyph-name="wuliudangan" unicode="&#58889;" d="M424.96 550.4h331.093333V503.466667H424.96v46.933333z m0-117.76h331.093333v-46.933333H424.96v46.933333z m0-142.506667h331.093333v-46.933333H424.96V290.133333zM798.72 810.666667H304.64c-66.56 0-116.053333-49.493333-116.053333-116.053334v-73.386666h-21.333334c-40.106667 0-73.386667-28.16-73.386666-70.826667v-42.666667c0-37.546667 33.28-75.946667 73.386666-75.946666h21.333334v-94.72h-21.333334c-40.106667 0-73.386667-28.16-73.386666-70.826667v-42.666667c0-37.546667 33.28-75.946667 73.386666-75.946666h21.333334v-66.56c0-66.56 49.493333-122.88 116.053333-122.88h494.08c66.56 0 122.88 57.173333 122.88 122.88V694.613333c0 66.56-57.173333 116.053333-122.88 116.053334zM283.306667 505.173333c0-14.506667-11.946667-25.6-25.6-25.6H167.253333c-14.506667 0-25.6 11.946667-25.6 25.6v42.666667c0 14.506667 11.946667 25.6 25.6 25.6h89.6c14.506667 0 25.6-11.946667 25.6-25.6v-42.666667h0.853334z m0-283.306666c0-14.506667-11.946667-25.6-25.6-25.6H167.253333c-14.506667 0-25.6 11.946667-25.6 25.6v42.666666c0 14.506667 11.946667 25.6 25.6 25.6h89.6c14.506667 0 25.6-11.946667 25.6-25.6v-42.666666h0.853334z m591.36-139.946667c0-40.106667-35.84-75.946667-75.946667-75.946667H304.64c-40.106667 0-68.266667 35.84-68.266667 75.946667v66.56h21.333334c40.106667 0 73.386667 37.546667 73.386666 77.653333v40.106667c0 40.106667-33.28 70.826667-73.386666 70.826667h-21.333334V432.64h21.333334c40.106667 0 73.386667 37.546667 73.386666 77.653333v40.106667c0 40.106667-33.28 70.826667-73.386666 70.826667h-21.333334v73.386666c0 40.106667 28.16 68.266667 68.266667 68.266667h494.08c40.106667 0 75.946667-28.16 75.946667-68.266667v-612.693333z"  horiz-adv-x="1024" />

    
    <glyph glyph-name="men" unicode="&#58882;" d="M1024.012 19.445c-0.006 155.74-89.433 288.857-215.897 343.147 61.248 44.142 101.614 119.342 101.614 204.747 0 116.592-75.2 214.174-176.152 239.551-0.298 0.078-0.639 0.123-0.991 0.123-0.608 0-1.184-0.134-1.701-0.374-1.118 0.128-2.238 0.391-3.404 0.391-21.567 0-39.048-18.864-39.048-42.125 0-21.004 14.298-38.274 32.951-41.451 3.318-1.46 7.674-2.568 7.844-2.638 58.463-21.397 100.524-81.003 100.524-151.29 0-78.371-52.337-143.494-121.364-157.123-0.094-0.006-0.176-0.199-0.276-0.252-22.962-1.565-41.193-21.948-41.193-47.096 0-25.536 18.765-46.223 42.225-47.231 0.158-0.088 0.305-0.363 0.469-0.369 138.827-15.253 237.235-142.79 237.235-298.014 0-22.98 17.276-41.61 38.585-41.61 20.787 0 37.612 17.774 38.426 39.98 0.023 0.217 0.152 0.387 0.152 0.61 0 0.076-0.029 0.152-0.029 0.252 0.012 0.252 0.029 0.504 0.029 0.756v0.018zM561.664 355.686c73.148 52.853 121.317 142.72 121.317 244.797 0 162.663-122.267 294.532-273.1 294.532-150.827 0-273.106-131.869-273.106-294.532 0-102.089 48.187-191.944 121.317-244.797-151.191-65.070-258.087-224.309-258.087-410.579 0-10.487 0.551-20.816 1.296-31.087h0.070c0-22.675 17.041-41.035 38.069-41.035 21.010 0 38.057 18.366 38.057 41.035 0 1.278-0.24 2.486-0.352 3.734-0.733 9.039-1.36 18.091-1.36 27.353 0 198.991 149.579 360.305 334.101 360.305 184.529 0 334.107-161.315 334.107-360.305 0-9.602-0.627-19.046-1.413-28.414-0.006-0.487-0.129-0.932-0.129-1.425 0-0.147 0.047-0.293 0.047-0.434-0.023-0.27-0.018-0.551-0.047-0.815h0.123c0.627-22.065 17.323-39.792 37.934-39.792 20.623 0 37.313 17.715 37.946 39.792h0.082c0.721 10.276 1.231 20.611 1.231 31.075-0.012 186.281-106.902 345.521-258.105 410.591zM409.881 388.918c-108.344 0-196.171 94.721-196.171 211.565 0 116.838 87.827 211.565 196.171 211.565s196.171-94.721 196.171-211.565-87.827-211.565-196.171-211.565z"  horiz-adv-x="1024" />

    
    <glyph glyph-name="plus1" unicode="&#59131;" d="M833.0752 341.19168h-278.26688v-278.26688a21.41184 21.41184 0 0 0-21.40672-21.40672h-42.80832a21.41184 21.41184 0 0 0-21.40672 21.40672v278.26688H190.9248a21.41184 21.41184 0 0 0-21.40672 21.40672v42.80832a21.41184 21.41184 0 0 0 21.40672 21.40672h278.26688V705.0752a21.41184 21.41184 0 0 0 21.40672 21.40672h42.80832a21.41184 21.41184 0 0 0 21.40672-21.40672v-278.26688h278.26688a21.41184 21.41184 0 0 0 21.40672-21.40672v-42.80832a21.42208 21.42208 0 0 0-21.41184-21.4016z"  horiz-adv-x="1024" />

    
    <glyph glyph-name="gongju" unicode="&#58884;" d="M898.832-4.518H103.817c-36.003 0-65.364 29.286-65.364 65.314v554.95c0 36.041 29.362 65.326 65.364 65.326h795.016c36.003 0 65.199-29.285 65.199-65.327v-554.95c-0.001-36.027-29.197-65.313-65.2-65.313zM103.817 640.407c-13.576 0-24.712-11.086-24.712-24.663v-554.95c0-13.575 11.137-24.662 24.712-24.662h795.016c13.577 0 24.547 11.087 24.547 24.663v554.95c0 13.576-10.971 24.662-24.547 24.662H103.817zM664.346 644.226c-11.161 0-20.332 9.08-20.332 20.332V765.836c0 13.577-11.047 24.624-24.7 24.624H383.183c-13.577 0-24.713-11.046-24.713-24.624v-101.278a20.278 20.278 0 0 0-20.332-20.332c-11.201 0-20.32 9.08-20.32 20.332V765.836c0 35.99 29.324 65.276 65.365 65.276h236.133c36.067 0 65.402-29.285 65.402-65.276v-101.278c0-11.252-9.08-20.332-20.37-20.332zM413.233 374.274H75.694c-11.163 0-20.333 9.118-20.333 20.357 0 11.252 9.17 20.332 20.333 20.332h337.539c11.278 0 20.32-9.08 20.32-20.332 0-11.239-9.042-20.357-20.32-20.357zM912.894 374.274H575.368c-11.214 0-20.332 9.118-20.332 20.357 0 11.252 9.118 20.332 20.332 20.332h337.526c11.29 0 20.332-9.08 20.332-20.332 0-11.239-9.042-20.357-20.332-20.357zM557.563 261.782H445.085c-11.213 0-20.332 9.08-20.332 20.331V450.877c0 11.251 9.12 20.332 20.332 20.332h112.48c11.29 0 20.37-9.08 20.37-20.332v-168.764c0-11.25-9.082-20.33-20.372-20.33z m-92.145 40.703h71.827v128.06h-71.827v-128.06z"  horiz-adv-x="1024" />

    
    <glyph glyph-name="kaiguan" unicode="&#58997;" d="M508.42508-47.664324c-55.244208 0-108.853174 10.82658-159.335938 32.178887-48.745191 20.617573-92.517113 50.126654-130.098034 87.708598s-67.091024 81.352843-87.708598 130.099057c-21.352307 50.482765-32.178887 104.09173-32.178886 159.335938 0 72.440869 19.183921 143.634328 55.477522 205.886137 35.201733 60.378136 85.609797 111.098307 145.776108 146.676617 14.594393 8.631588 33.42118 3.795443 42.050721-10.79895 8.630564-14.594393 3.795443-33.42118-10.79895-42.050722-105.542778-62.412468-171.107029-177.256076-171.107029-299.714106 0-191.846376 156.077731-347.924107 347.924107-347.924107s347.924107 156.077731 347.924108 347.924107c0 121.450073-61.749366 232.152361-165.179017 296.127418-14.419408 8.919137-18.877953 27.838022-9.958816 42.25743 8.92016 14.419408 27.838022 18.877953 42.257429 9.958815 58.251705-36.030611 106.952894-86.513376 140.839679-145.992025 34.960233-61.364603 53.44012-131.336234 53.44012-202.351638 0-55.244208-10.82658-108.853174-32.178887-159.335938-20.61655-48.746214-50.126654-92.517113-87.708598-130.099057s-81.352843-67.091024-130.099056-87.708597c-50.484811-21.351284-104.093776-32.177863-159.337985-32.177864zM508.42508 336.075501c-16.954137 0-30.699186 13.745049-30.699186 30.699186v415.462316c0 16.954137 13.745049 30.699186 30.699186 30.699186s30.699186-13.745049 30.699186-30.699186v-415.462316c0-16.954137-13.745049-30.699186-30.699186-30.699186z"  horiz-adv-x="1024" />

    
    <glyph glyph-name="plane1" unicode="&#58893;" d="M738.05824-122.52728888888885a23.40408888888889 23.40408888888889 0 0 0-22.376675555555558 16.53191111111111L583.4331022222223 324.39751111111104 425.51296 190.5755022222222l1.9114666666666664-232.73585777777777a23.40522666666667 23.40522666666667 0 0 0-6.710613333333333-16.596764444444442l-39.09632-39.794915555555555a23.408640000000002 23.408640000000002 0 0 0-38.531982222222226 7.9598933333333335L258.46556444444445 128.1592888888888l-227.11182222222223 97.55648a23.409777777777776 23.409777777777776 0 0 0-7.520711111111112 37.85159111111111l38.93816888888889 39.93827555555555a23.487146666666668 23.487146666666668 0 0 0 17.906346666666664 7.039431111111112l238.21425777777776-11.666773333333333L453.0631111111111 463.49653333333333 19.67217777777779 601.1255466666667a23.412053333333336 23.412053333333336 0 0 0-9.641528888888889 38.690133333333335l74.39473777777776 75.9808a23.446186666666666 23.446186666666666 0 0 0 19.072568888888892 6.917688888888889l534.4415288888889-53.81233777777778 151.44618666666665 151.79889777777777c60.32156444444445 61.02812444444444 118.13888 70.60821333333334 147.23982222222222 70.60821333333334h0.43235555555555555c27.014257777777775 0 50.89507555555555-7.9928888888888885 63.9488-21.044337777777777 31.520995555555555-31.519857777777776 29.95541333333333-121.43160888888889-54.95694222222222-208.05745777777778-0.06030222222222222-0.061439999999999995-0.11946666666666665-0.17749333333333334-0.18204444444444443-0.23665777777777777L793.0857244444444 509.4343111111111l42.74631111111111-530.6800355555556a23.42456888888889 23.42456888888889 0 0 0-6.610488888888888-18.26816l-74.4391111111111-75.98307555555556a23.420017777777776 23.420017777777776 0 0 0-16.72305777777778-7.031466666666666zM595.3854577777778 388.61710222222223a23.40750222222222 23.40750222222222 0 0 0 22.374399999999998-16.53191111111111l131.1175111111111-426.71217777777775 39.42968888888889 40.24661333333333-42.75882666666667 530.8233955555555a23.408640000000002 23.408640000000002 0 0 0 6.795946666666667 18.445653333333333L912.7071288888889 694.9660444444444c39.34776888888888 40.174933333333335 53.20248888888889 75.42897777777779 57.89240888888889 97.93308444444443 5.782186666666666 27.73902222222222-0.7805155555555555 42.004479999999994-2.7135999999999996 44.049066666666675-8.616391111111112 8.483271111111112-73.98968888888889 22.71800888888889-145.26805333333334-49.444408888888894a3.622684444444445 3.622684444444445 0 0 0-0.09443555555555556-0.09557333333333333L663.2061155555555 627.9509333333334a23.391573333333334 23.391573333333334 0 0 0-18.906453333333335-6.743608888888888l-534.2958933333333 53.794133333333335-39.91096888888889-40.76316444444444L500.04195555555555 497.7004088888889a23.408640000000002 23.408640000000002 0 0 0 11.061475555555555-37.100657777777776L347.70944 260.12785777777776a23.438222222222226 23.438222222222226 0 0 0-19.29102222222222-8.593635555555554l-239.49084444444446 11.728213333333334-7.782399999999999-7.98151111111111 204.84209777777778-87.9877688888889a23.41319111111111 23.41319111111111 0 0 0 12.594062222222222-13.063964444444444l75.07626666666667-194.08213333333333 6.869902222222223 6.99392-1.9205688888888888 234.01358222222223a23.40408888888889 23.40408888888889 0 0 0 8.27392 18.050844444444447L580.2496000000001 383.06702222222214a23.396124444444446 23.396124444444446 0 0 0 15.135857777777778 5.552355555555555z"  horiz-adv-x="1024" />

    
    <glyph glyph-name="jingshi" unicode="&#58973;" d="M511.3 832.2c-258.5 0-465.8-219.4-446-482.1C81.9 130.3 257.7-45 477.5-61.2c262.4-19.2 481.1 187.8 481.1 446.1 0 247-200.2 447.3-447.3 447.3z m0-830.7c-205.6 0-373.5 161.9-383 365.3-10.6 229.8 171.3 411.7 401.1 401.1 203.4-9.4 365.3-177.3 365.3-383 0-211.7-171.6-383.4-383.4-383.4zM483.4 607.8h55.7c2.2 0 4-1.8 4-4v-55.7c0-2.2-1.8-4-4-4h-55.7c-2.2 0-4 1.8-4 4v55.7c0 2.2 1.8 4 4 4zM483.4 480.3h55.7c2.2 0 4-1.8 4-4v-310.2c0-2.2-1.8-4-4-4h-55.7c-2.2 0-4 1.8-4 4V476.3c0 2.2 1.8 4 4 4z"  horiz-adv-x="1024" />

    
    <glyph glyph-name="danganguanli" unicode="&#58937;" d="M981.575904 414.912099l-314.581936 1.734999-131.975973 126.429974a28.840994 28.840994 0 0 1-19.625996 8.902999H52.338094a28.442994 28.442994 0 0 1-9.954998 1.762999 27.902994 27.902994 0 0 1-28.159994-28.442994v-624.809872a27.902994 27.902994 0 0 1 28.159994-28.443994h939.192808a26.593995 26.593995 0 0 1 28.158994 26.650995v487.799899a28.044994 28.044994 0 0 1-28.159994 28.414995z m-28.442994-485.893901H70.82609V494.950082h432.619912l130.269973-124.609974c1.138-1.165 2.559999-2.246 3.697999-3.242a28.272994 28.272994 0 0 1 19.339996-7.451998l296.37894-1.621v-429.093912zM493.490004 127.835158a174.669964 174.669964 0 1 1-215.314956 0.711999 333.580932 333.580932 0 0 1-145.91297-99.863979 26.650995 26.650995 0 0 1 1.989999-39.194992 22.213995 22.213995 0 0 1 17.635997-7.139999 32.566993 32.566993 0 0 1 22.753995 8.902999 273.793944 273.793944 0 0 0 419.820914 0 23.521995 23.521995 0 0 1 21.332996-10.693998 41.185992 41.185992 0 0 1 21.047995 8.929998 32.453993 32.453993 0 0 1 8.816999 21.361996 22.754995 22.754995 0 0 1-7.109999 17.833996 332.159932 332.159932 0 0 1-145.05997 99.15198z m-107.229978 18.431996a117.639976 117.639976 0 0 0-102.111979 59.729988 119.460976 119.460976 0 0 0 0 119.461975A118.522976 118.522976 0 1 0 386.260026 146.267154zM74.23809 607.046059a27.902994 27.902994 0 0 1 28.158994 28.442994V839.114012h563.173885v-347.290929a28.442994 28.442994 0 1 1 56.601988 0V865.736006c0 0.313-0.284 0.598-0.284 0.882s0.284 0.598 0.284 0.882A28.158994 28.158994 0 0 1 693.730963 895.943H81.350088a30.177994 30.177994 0 0 1-5.404999-0.483H74.24009a28.129994 28.129994 0 0 1-28.442994-28.443994v-231.469953a28.158994 28.158994 0 0 1 28.442994-28.385994z m690.314858 162.438967h31.571994v-277.661943a28.442994 28.442994 0 1 1 56.601988 0V798.07002a28.072994 28.072994 0 0 1-28.157994 28.442994h-60.015988a28.471994 28.471994 0 0 1 0-56.942988z m130.554973-46.305991h26.451995v-231.355952a27.902994 27.902994 0 0 1 28.157994-28.443994 28.613994 28.613994 0 0 1 28.443994 30.263994V751.76503a28.158994 28.158994 0 0 1-28.443994 28.442994h-54.609989a28.442994 28.442994 0 0 1 0-56.914989z m-739.806848-17.804996a28.442994 28.442994 0 0 1 0-56.885988h455.659907a28.442994 28.442994 0 0 1 0 56.885988h-455.659907z m455.374907 93.122981h-455.089907a28.499994 28.499994 0 0 1 0-57.028988h455.089907a28.584994 28.584994 0 0 1 0 57.142988z"  horiz-adv-x="1024" />

    
    <glyph glyph-name="loufang" unicode="&#58921;" d="M736.05 496.354h56.013v-56.013H736.05v56.013zM736.05 328.315h56.013v-56.012H736.05v56.012zM736.05 160.277h56.013v-56.013H736.05v56.013zM399.973 496.354h56.013v-56.013h-56.013v56.013zM399.973 328.315h56.013v-56.012h-56.013v56.012zM231.935 496.354h56.013v-56.013h-56.013v56.013zM399.973 664.393h56.013v-56.013h-56.013v56.013zM231.935 664.393h56.013v-56.013h-56.013v56.013zM231.935 328.315h56.013v-56.012h-56.013v56.012zM904.09 664.393H624.023V776.418c0 30.96-25.052 56.013-56.013 56.013H119.908c-30.96 0-56.012-25.052-56.012-56.013v-784.18c0-30.96 25.052-56.012 56.012-56.012H904.09c30.96 0 56.013 25.051 56.013 56.012V608.38c0 30.96-25.052 56.014-56.013 56.014zM371.965-7.762h-56.013V104.264h56.013v-112.026z m196.045 0H427.98V132.271c0 15.48-12.525 28.006-28.006 28.006H287.948c-15.481 0-28.007-12.527-28.007-28.006v-140.033H147.915c-15.48 0-28.007 12.527-28.007 28.006V748.413c0 15.48 12.528 28.005 28.007 28.005h392.091c15.479 0 28.005-12.526 28.005-28.005v-756.175z m336.078 28.006c0-15.48-12.526-28.006-28.006-28.006h-252.06V608.38h252.059c15.48 0 28.006-12.526 28.006-28.007v-560.128z"  horiz-adv-x="1024" />

    
    <glyph glyph-name="danganguanli1" unicode="&#58967;" d="M45.141432 540.139529l435.817548-294.091054a45.640735 45.640735 0 0 1 59.710436 0l433.758567 292.375237h2.058981l1.715817 1.715817a45.640735 45.640735 0 0 1 0 64.514724l-2.402144 2.058981L540.326252 885.01877a45.640735 45.640735 0 0 1-59.024109 0L45.484595 608.772214l-2.058981-2.05898a45.640735 45.640735 0 0 1 0-64.514724zM509.784707 837.662218l416.257234-263.54951-416.257234-280.364517L94.900128 574.112708z m-15.785517-784.81475a28.139401 28.139401 0 0 1 15.785517-4.804288 28.482564 28.482564 0 0 1 15.785518 4.804288l480.428793 326.348416a27.796237 27.796237 0 0 1-31.227871 45.983898l-464.98644-315.367186-462.927458 315.367186a27.796237 27.796237 0 0 1-31.227872-45.983898z m480.428793 198.005295L509.784707-64.857587 46.857249 250.852763a28.482564 28.482564 0 1 1-31.227872-47.699716l480.428793-326.348416a28.482564 28.482564 0 0 1 15.785518-4.804288 27.796237 27.796237 0 0 1 15.785517 4.804288l480.428794 326.348416a27.899186 27.899186 0 0 1-31.571035 45.983899z"  horiz-adv-x="1024" />

    


  </font>
</defs>
</svg>
