<?xml version="1.0" standalone="no"?>
<!DOCTYPE svg PUBLIC "-//W3C//DTD SVG 1.1//EN" "http://www.w3.org/Graphics/SVG/1.1/DTD/svg11.dtd" >
<svg xmlns="http://www.w3.org/2000/svg">
<metadata>
Created by FontForge 20120731 at Tue Jun 21 18:43:20 2016
 By admin
</metadata>
<defs>
<font id="Hui-iconfont" horiz-adv-x="1024" >
  <font-face 
    font-family="Hui-iconfont"
    font-weight="500"
    font-stretch="normal"
    units-per-em="1024"
    panose-1="2 0 6 3 0 0 0 0 0 0"
    ascent="896"
    descent="-128"
    x-height="792"
    bbox="0 -128 1815 896"
    underline-thickness="50"
    underline-position="-100"
    unicode-range="U+0078-E72D"
  />
<missing-glyph horiz-adv-x="374" 
d="M34 0v682h272v-682h-272zM68 34h204v614h-204v-614z" />
    <glyph glyph-name=".notdef" horiz-adv-x="374" 
d="M34 0v682h272v-682h-272zM68 34h204v614h-204v-614z" />
    <glyph glyph-name=".null" horiz-adv-x="0" 
 />
    <glyph glyph-name="nonmarkingreturn" horiz-adv-x="341" 
 />
    <glyph glyph-name="x" unicode="x" horiz-adv-x="1001" 
d="M281 543q-27 -1 -53 -1h-83q-18 0 -36.5 -6t-32.5 -18.5t-23 -32t-9 -45.5v-76h912v41q0 16 -0.5 30t-0.5 18q0 13 -5 29t-17 29.5t-31.5 22.5t-49.5 9h-133v-97h-438v97zM955 310v-52q0 -23 0.5 -52t0.5 -58t-10.5 -47.5t-26 -30t-33 -16t-31.5 -4.5q-14 -1 -29.5 -0.5
t-29.5 0.5h-32l-45 128h-439l-44 -128h-29h-34q-20 0 -45 1q-25 0 -41 9.5t-25.5 23t-13.5 29.5t-4 30v167h911zM163 247q-12 0 -21 -8.5t-9 -21.5t9 -21.5t21 -8.5q13 0 22 8.5t9 21.5t-9 21.5t-22 8.5zM316 123q-8 -26 -14 -48q-5 -19 -10.5 -37t-7.5 -25t-3 -15t1 -14.5
t9.5 -10.5t21.5 -4h37h67h81h80h64h36q23 0 34 12t2 38q-5 13 -9.5 30.5t-9.5 34.5q-5 19 -11 39h-368zM336 498v228q0 11 2.5 23t10 21.5t20.5 15.5t34 6h188q31 0 51.5 -14.5t20.5 -52.5v-227h-327z" />
    <glyph glyph-name="uniE600" unicode="&#xe600;" 
d="M896 320h-320v-320h-128v320h-320v128h320v320h128v-320h320v-128z" />
    <glyph glyph-name="uniE601" unicode="&#xe601;" 
d="M519.5 -49q-115.5 0 -214 57.5t-155.5 155.5t-57 214t57 214.5t155.5 155.5t214 57t214 -57t155.5 -155.5t57 -214.5t-57 -214t-155.5 -155.5t-214 -57.5zM519.5 799q-114.5 0 -211.5 -56.5t-153.5 -153.5t-56.5 -211t56.5 -211t153.5 -153.5t211.5 -56.5t211.5 56.5
t153.5 153.5t56.5 211t-56.5 211t-153.5 153.5t-211.5 56.5zM763 378q0 -101 -71 -172.5t-172 -71.5t-172.5 71.5t-71.5 172.5t71.5 172.5t172.5 71.5t172 -71.5t71 -172.5z" />
    <glyph glyph-name="uniE602" unicode="&#xe602;" 
d="M900 687h-776q-22 0 -37.5 -15.5t-15.5 -36.5v-502q0 -21 15.5 -36.5t37.5 -15.5h776q22 0 37.5 15.5t15.5 36.5v502q0 21 -15.5 36.5t-37.5 15.5zM916 133q0 -6 -4.5 -10.5t-11.5 -4.5h-776q-7 0 -11.5 4.5t-4.5 10.5v502q0 6 4.5 10.5t11.5 4.5h776q7 0 11.5 -4.5
t4.5 -10.5v-502zM833 536h-344q-7 0 -12.5 -5.5t-5.5 -13t5.5 -12.5t12.5 -5h344q7 0 12.5 5t5.5 12.5t-5.5 13t-12.5 5.5zM833 420h-344q-7 0 -12.5 -5.5t-5.5 -12.5t5.5 -12.5t12.5 -5.5h344q7 0 12.5 5.5t5.5 12.5t-5.5 12.5t-12.5 5.5zM833 304h-344q-7 0 -12.5 -5
t-5.5 -12.5t5.5 -13t12.5 -5.5h344q7 0 12.5 5.5t5.5 13t-5.5 12.5t-12.5 5zM225 518q0 -27 19 -46.5t46.5 -19.5t46.5 19.5t19 46.5q0 28 -19 47t-46.5 19t-46.5 -19t-19 -47zM290.5 417q-45.5 0 -76 -43t-30.5 -88q0 -36 31.5 -55.5t75 -19.5t75 19.5t31.5 55.5
q0 45 -30.5 88t-76 43z" />
    <glyph glyph-name="uniE603" unicode="&#xe603;" 
d="M933 775q-5 2 -10 2q-14 0 -24 -10q-741 -372 -801 -404q-25 -13 -23 -35q2 -19 20 -25q255 -80 256 -80l4 -2l14 44l-223 70l686 357q-205 -232 -383 -434q-26 -29 -26 -62v-135v-47v-2q1 -9 8 -15t16 -6t15.5 6t7.5 15q1 168 0 181q-1 17 9 29q106 119 410 464
q-100 -498 -113 -561q-1 -3 -3 -3h-2q-11 4 -246 75l-4 1l-15 -44l5 -2l24 -8q24 -7 58.5 -17.5t70 -21t63 -19t34.5 -10.5q6 -2 13 -2q18 0 31.5 11.5t16.5 30.5q2 8 49 244q75 368 76 376l1 3q5 26 -15 36z" />
    <glyph glyph-name="uniE604" unicode="&#xe604;" 
d="M514 825q-90 0 -171.5 -35t-141 -94t-94.5 -140.5t-35 -171.5t35 -171.5t94.5 -140.5t141 -94t171.5 -35t171.5 35t140.5 94t94 140.5t35 171.5t-35 171.5t-94 140.5t-140.5 94t-171.5 35zM514 -17q-109 0 -201.5 53.5t-146 146t-53.5 201.5t53.5 201.5t146 146
t201.5 53.5t201.5 -53.5t146 -146t53.5 -201.5t-53.5 -201.5t-146 -146t-201.5 -53.5zM534 605h-40v-201h-201v-40h201v-201h40v201h200v40h-200v201z" />
    <glyph glyph-name="uniE605" unicode="&#xe605;" 
d="M837 496h-576v28v2q0 102 72 174t175 72q73 0 134.5 -40.5t91.5 -107.5q4 -10 14 -14t19.5 0.5t13.5 14.5t0 19q-36 82 -110 130.5t-163 48.5q-124 0 -211 -87t-87 -210v-2v-28h-28q-27 0 -46.5 -19.5t-19.5 -47.5v-409q0 -27 19.5 -46.5t46.5 -19.5h655q28 0 47.5 19.5
t19.5 46.5v409q0 28 -19.5 47.5t-47.5 19.5zM852 20q0 -6 -4.5 -10.5t-10.5 -4.5h-655q-6 0 -10.5 4.5t-4.5 10.5v409q0 7 4.5 11.5t10.5 4.5h655q6 0 10.5 -4.5t4.5 -11.5v-409zM509.5 373q-44.5 0 -76 -31.5t-31.5 -75.5q0 -52 41 -85v-38q0 -28 19.5 -47.5t47.5 -19.5h4
q27 0 46.5 19.5t19.5 47.5v42q37 32 37 81q0 44 -31.5 75.5t-76 31.5zM541 219l-12 -8v-68q0 -7 -4.5 -11.5t-10.5 -4.5h-4q-7 0 -11.5 4.5t-4.5 11.5v67l-12 7q-29 16 -29 49q0 23 16.5 39.5t40 16.5t40 -16.5t16.5 -39.5q0 -31 -25 -47z" />
    <glyph glyph-name="uniE606" unicode="&#xe606;" 
d="M906 559q-33 78 -93.5 138t-137.5 93q-81 34 -169.5 34t-169.5 -34q-78 -33 -138 -93t-93 -138q-34 -81 -34 -169t34 -169q33 -78 93 -138t138 -93q81 -35 169.5 -35t169.5 35q77 33 137.5 93t93.5 138q34 81 34 169t-34 169zM505 -12q-109 0 -201.5 54t-146 146.5
t-53.5 201.5t53.5 201.5t146 146.5t201.5 54t201.5 -54t146.5 -146.5t54 -201.5t-54 -201.5t-146.5 -146.5t-201.5 -54zM689 405h-149v174q0 10 -7 17.5t-17 7.5h-25q-10 0 -17.5 -7.5t-7.5 -17.5v-223q0 -10 7.5 -17.5t17.5 -7.5h198q10 0 17.5 7.5t7.5 17.5v25
q0 10 -7.5 17t-17.5 7z" />
    <glyph glyph-name="uniE607" unicode="&#xe607;" 
d="M680 194q-71 30 -176 61q-3 1 -4 3.5t-1 16.5q0 18 13 45q13 28 17 60q18 20 27 63q6 33 -1 53q-1 2 -1 3q-5 19 5 74q4 19 -2.5 46.5t-25.5 51.5q-39 49 -112 54h-34q-73 -5 -111 -54q-19 -24 -25.5 -51.5t-3.5 -46.5q10 -55 6 -74q0 -1 -1 -3q-7 -20 -1 -53
q9 -43 26 -63q5 -32 18 -60q7 -16 7 -46q0 -13 -0.5 -16t-4.5 -4q-102 -30 -175 -62q-32 -14 -32 -49v-83q0 -11 7.5 -21.5t24.5 -10.5h245h35h6h35h245q17 0 25 10.5t8 21.5v83q0 14 -10 28.5t-29 22.5zM685 61h-564v82q0 13 13 19q71 31 171 60q13 4 20 14.5t8 17.5t1 20
q0 37 -11 60q-11 24 -15 50l-1 10l-7 8q-11 13 -18 47q-5 24 -1 34l2 8l1 1q5 26 -6 87q-2 12 3 33t19 39q29 37 86 41h32q58 -4 87 -41q14 -18 19 -39t3 -33q-11 -61 -6 -87v-1l1 -1q0 -3 1 -5l1 -1q4 -11 -1 -35q-7 -34 -19 -47l-6 -8l-2 -10q-3 -26 -14 -50
q-16 -34 -16 -59q0 -13 1 -20.5t7.5 -17.5t20.5 -14q103 -30 172 -60q18 -7 18 -20v-82zM818 426v132h-33v-132h-132v-33h132v-132h33v132h132v33h-132z" />
    <glyph glyph-name="uniE608" unicode="&#xe608;" 
d="M515 1q-80 0 -153 30q-70 30 -124 84t-84 124q-30 73 -30 153q0 106 52 196t142.5 142.5t196.5 52.5q79 0 152 -31q70 -30 124 -84t84 -124q31 -73 31 -152q0 -106 -52.5 -196.5t-142.5 -142.5t-196 -52zM515 741q-95 0 -175.5 -46.5t-127.5 -127t-47 -175.5t47 -175.5
t127.5 -127.5t175.5 -47t175.5 47t127.5 127.5t47 175.5t-47 175.5t-127.5 127t-175.5 46.5z" />
    <glyph glyph-name="uniE609" unicode="&#xe609;" 
d="M590 156q-12 0 -20 8t-8 20v307q0 12 8 20t19.5 8t20 -8t8.5 -20v-307q0 -12 -8.5 -20t-19.5 -8zM422 156q-12 0 -20 8t-8 20v307q0 12 8 20t19.5 8t20 -8t8.5 -20v-307q0 -12 -8.5 -20t-19.5 -8zM869 631h-140v56q0 35 -24 59.5t-59 24.5h-280q-35 0 -59.5 -24.5
t-24.5 -59.5v-56h-140q-12 0 -20 -8t-8 -19.5t8 -20t20 -8.5h727q12 0 20 8.5t8 20t-8 19.5t-20 8zM338 687q0 12 8 20t20 8h280q12 0 20 -8t8 -20v-56h-336v56zM702 -12h-392q-35 0 -59.5 24.5t-24.5 59.5v420q0 11 8 19.5t20 8.5t20 -8.5t8 -19.5v-420q0 -12 8 -20t20 -8
h392q11 0 19.5 8t8.5 20v419q0 11 8 19.5t19.5 8.5t20 -8.5t8.5 -19.5v-419q0 -35 -25 -59.5t-59 -24.5z" />
    <glyph glyph-name="uniE60A" unicode="&#xe60a;" 
d="M512 -128q-111 0 -207.5 40.5t-162.5 109.5t-104 163t-38 199q0 104 40.5 199t109 163.5t163.5 109t199 40.5t199 -40.5t163.5 -109t109 -163.5t40.5 -199q0 -105 -38 -199t-104 -163t-162.5 -109.5t-207.5 -40.5zM512 830q-91 0 -173.5 -35.5t-142 -95t-95 -142
t-35.5 -173.5q0 -85 30.5 -161.5t85.5 -137.5q32 16 57.5 19.5t67.5 20.5q39 16 65.5 28t34.5 16l7 4l1 82q-4 3 -9.5 9t-17 32t-15.5 61q-14 -4 -20.5 9.5t-8.5 32.5q0 2 -1 14t-1.5 20t0.5 18t4.5 14.5t10.5 2.5q-9 68 -6 90q4 51 49 91t113 43q77 -3 116.5 -41.5
t44.5 -92.5q2 -20 -7 -89q7 1 11 -3.5t4.5 -14.5t0.5 -18t-1.5 -20t-1.5 -14q-1 -18 -8 -32t-20 -10q-5 -34 -15.5 -59.5t-19.5 -33.5l-8 -9l1 -81q20 -12 107 -47q42 -18 67.5 -22t57.5 -20q55 61 85.5 137.5t30.5 161.5q0 91 -35.5 173.5t-95 142t-142 95t-173.5 35.5z
" />
    <glyph glyph-name="uniE60B" unicode="&#xe60b;" 
d="M506 827q-91 0 -174 -35.5t-143 -95.5t-95.5 -142.5t-35.5 -173.5t35.5 -174t95.5 -143t143 -95.5t174 -35.5t173.5 35.5t142.5 95.5t95.5 143t35.5 174t-35.5 173.5t-95.5 142.5t-142.5 95.5t-173.5 35.5zM505.5 -43q-114.5 0 -212 56.5t-154 154t-56.5 212t56.5 212
t154 154t212 56.5t212 -56.5t154.5 -154t57 -212t-57 -212t-154.5 -154t-212 -56.5zM679 576l-169 -169l-168 168l-30 -30l168 -168l-169 -168l31 -30l168 168l168 -169l30 30l-168 169l170 169z" />
    <glyph glyph-name="uniE60C" unicode="&#xe60c;" 
d="M768 -60h-575q-40 0 -68 28t-28 67v639q0 40 28 68t68 28h447q13 0 22.5 -9.5t9.5 -22.5t-9.5 -22.5t-22.5 -9.5h-447q-14 0 -23 -9.5t-9 -22.5v-639q0 -13 9 -22.5t23 -9.5h575q13 0 22 9.5t9 22.5v511q0 14 9.5 23t23 9t22.5 -9t9 -23v-511q0 -39 -28 -67t-67 -28z
M580 451q-13 0 -22.5 9t-9.5 22.5t9 22.5l318 318q9 9 22.5 9t22.5 -9.5t9 -22.5t-9 -23l-318 -317q-9 -9 -22 -9zM448 451h-192q-13 0 -22 9t-9 22.5t9 23t22 9.5h192q13 0 22.5 -9.5t9.5 -23t-9.5 -22.5t-22.5 -9zM640 259h-384q-13 0 -22 9.5t-9 22.5t9 22.5t22 9.5h384
q13 0 22.5 -9.5t9.5 -22.5t-9.5 -22.5t-22.5 -9.5zM640 259z" />
    <glyph glyph-name="uniE60D" unicode="&#xe60d;" 
d="M950 89q-7 28 -35.5 63t-52 55t-41.5 34q-12 8 -31.5 10t-37.5 0.5t-38 0.5q-37 4 -66 55q-3 5 -4 21t0 21l7 15q11 13 24 37t20 42l8 18q14 18 19.5 35t4 28.5t-5.5 20t-8 13.5l-4 4q1 8 2.5 49t-0.5 56q0 1 -1 7.5t-1.5 10t-2.5 11t-4 13t-6 14t-8 16t-10.5 16.5
t-14.5 18q-19 22 -48.5 35t-50.5 15l-20 2h-32h-32q-9 0 -23 -2t-45.5 -15t-50.5 -35q-8 -9 -14.5 -18t-10.5 -16.5t-8 -16t-6 -14t-4 -13t-2.5 -11t-1.5 -10t-1 -7.5q-2 -15 -0.5 -56t2.5 -49q-1 -2 -4 -4.5t-8 -12.5t-6 -21t4.5 -28t19.5 -35q28 -69 52 -97q6 -10 7 -15
t0 -21t-4 -22q-29 -50 -66 -54q-20 -2 -38 -0.5t-38 -0.5t-31 -10q-18 -14 -41.5 -34.5t-52 -55.5t-35.5 -62q-33 -126 40 -146h391h14h391q72 20 40 146zM878 -3q-17 -4 -167.5 -5t-198.5 0q-48 -1 -198.5 0t-167.5 5q-18 5 -18.5 24t7.5 47q4 25 38 62t59 53q12 8 20.5 10
t33.5 4t48.5 5.5t43 15t31 28t18 28.5t10.5 23q5 18 3.5 48.5t-6.5 34.5q-4 5 -18 28t-16 29l-15 35q-18 21 -21.5 38.5t-0.5 24t7 8.5q5 3 4 48q0 6 -0.5 17t-0.5 17t0.5 17.5t2.5 25t5 30.5q3 18 15.5 32t27 21.5t30.5 13t24.5 7t10.5 1.5h23h23q4 0 10.5 -1.5t24 -7
t31.5 -13t26.5 -21.5t15.5 -32q4 -21 6 -39t2 -24t-0.5 -24t-0.5 -20q-1 -45 4 -48q3 -2 6.5 -8.5t-0.5 -24t-22 -38.5q-11 -28 -14 -35q-2 -6 -16 -29t-18 -28q-5 -4 -6.5 -34.5t3.5 -48.5q4 -11 10.5 -23t18 -28.5t31 -28t43.5 -15.5q20 -3 40 -4.5t27.5 -2.5t16 -3.5
t18.5 -8.5q25 -16 59 -53t38 -62q8 -28 7.5 -47t-18.5 -24z" />
    <glyph glyph-name="uniE60E" unicode="&#xe60e;" 
d="M796 -37h-568q-29 0 -49 20t-20 48v364q0 29 20 49t49 20v68q0 74 39 137t105 99.5t140 36.5t140 -36.5t105 -99.5t39 -137v-68q29 0 49 -20t20 -49v-364q0 -28 -20 -48t-49 -20zM512 759q-95 0 -167 -67t-72 -160v-68h478v68q0 93 -72 160t-167 67zM819 373
q0 18 -13 31.5t-32 13.5h-23h-478h-23q-19 0 -32 -13.5t-13 -31.5v-319q0 -19 13 -32t32 -13h524q19 0 32 13t13 32v319zM512 145q-14 0 -24 10t-10 24v68q0 15 10 25t24 10t24 -10t10 -25v-68q0 -14 -10 -24t-24 -10z" />
    <glyph glyph-name="uniE60F" unicode="&#xe60f;" 
d="M978 199q-7 -39 -28 -70q-17 -27 -52 -48.5t-94 -21.5q-39 0 -74 5.5t-61.5 17.5t-43.5 32t-20 48.5t8.5 60t34 57t54.5 42t70 16.5q65 0 113 -23v428l-465 -67l4 -571v-25q0 -31 -12.5 -60t-34.5 -51.5t-53 -36t-69 -13.5q-41 0 -76 7.5t-61.5 22.5t-43 37t-19.5 51
t8.5 56t34.5 48.5t55 36.5t70 19q29 4 56.5 0.5t52.5 -12.5v572l646 93v-651z" />
    <glyph glyph-name="uniE610" unicode="&#xe610;" 
d="M920 864h-816q-30 0 -51 -21t-21 -51v-816q0 -30 21 -51t51 -21h816q30 0 51 21t21 51v816q0 30 -21 51t-51 21zM976 -24q0 -23 -16.5 -39.5t-39.5 -16.5h-816q-23 0 -39.5 16.5t-16.5 39.5v816q0 23 16.5 39.5t39.5 16.5h816q23 0 39.5 -16.5t16.5 -39.5v-816zM736 384
h-224v224q0 8 -8 8t-8 -8v-224h-224q-8 0 -8 -8t8 -8h224v-224q0 -8 8 -8t8 8v224h224q8 0 8 8t-8 8z" />
    <glyph glyph-name="uniE611" unicode="&#xe611;" 
d="M781 21q-4 72 -59 117q-31 25 -104 54q-28 10 -41 16t-28 17t-21 23q-1 20 -1 54v4v4q11 12 22 34q12 25 17 49q9 5 16 13q13 17 17 49q3 26 -11 45q11 39 14 78q6 68 -19 109q-23 37 -70 46q-26 33 -92 33h-1q-99 -2 -143 -60q-53 -69 -20 -206q-14 -18 -11 -45
q4 -32 17 -49q7 -8 16 -13q4 -23 15.5 -46.5t23.5 -36.5q1 -5 1 -8q0 -34 -2 -54q-5 -12 -20 -23t-28.5 -17t-40.5 -16q-74 -29 -105 -54q-55 -45 -59 -117q-1 -8 4.5 -13.5t13.5 -5.5h681q8 0 13.5 5.5t4.5 13.5zM102 38q8 43 44 72q26 21 95 48q24 10 36.5 15.5t30 15.5
t28 21.5t16.5 26.5q0 2 1 5q2 23 2 60q-1 11 -1 17q0 11 -9 16q-7 5 -18.5 28t-13.5 46q-2 14 -17 16q-1 0 -3.5 2.5t-6 11t-4.5 20.5q-2 16 5 20q11 7 8 20q-16 61 -14 107q2 49 24 78q34 45 116 46q53 0 66 -22q5 -8 13 -9q36 -5 52 -31q13 -21 14.5 -54.5t-3.5 -61.5
t-13 -52q-4 -14 8 -21q7 -5 5 -20q-1 -12 -4.5 -20.5t-6 -11t-4.5 -2.5q-15 -2 -16 -16q-3 -23 -14 -46t-17 -28q-10 -5 -10 -16v-17q0 -37 2 -60q0 -3 1 -5q5 -15 15.5 -26.5t28 -21.5t30 -15.5t37.5 -15.5q68 -27 94 -48q36 -29 44 -72h-641zM956 105q-6 -6 -14 -6h-110
q-7 0 -12.5 5t-5.5 12.5t5.5 13t12.5 5.5h90q-7 33 -35 55q-22 18 -79 41q-28 11 -42 17.5t-30.5 20t-22.5 30.5q-1 2 -1 5q-2 19 -1 51v14q0 10 9 16q5 4 14 23t11 37q1 14 16 16q7 2 10 26q1 10 -3 14q-12 8 -8 21q7 20 11 43t3 51t-12 45q-13 21 -41 25q-9 1 -13 9
q-10 17 -54 17q-16 0 -30 -2q-7 -2 -13 2.5t-7.5 12t3 13.5t11.5 7q17 3 36 3q57 0 80 -28q39 -8 59 -40q34 -56 5 -159q12 -15 9 -38q-3 -27 -15 -42q-6 -8 -13 -12q-9 -44 -32 -68v-7q-1 -28 1 -44q6 -14 23 -23.5t50 -22.5q62 -24 89 -46q47 -38 50 -100q1 -8 -4 -13z
" />
    <glyph glyph-name="uniE612" unicode="&#xe612;" 
d="M296 697q-40 0 -68 -28t-28 -67.5t28 -68t68 -28.5t68 28.5t28 68t-28 67.5t-68 28zM296 532q-29 0 -49.5 20.5t-20.5 49t20.5 49t49.5 20.5t49.5 -20.5t20.5 -49t-20.5 -49t-49.5 -20.5zM853 805h-682q-33 0 -56 -23.5t-23 -55.5v-683q0 -32 23 -55.5t56 -23.5h682
q33 0 56 23.5t23 55.5v683q0 32 -23 55.5t-56 23.5zM171 -9q-22 0 -37.5 15.5t-15.5 36.5v46l230 206l300 -304h-477zM906 43q0 -21 -15.5 -36.5t-37.5 -15.5h-168l-206 209l259 258l168 -168v-247zM906 327l-168 168l-278 -276l-110 112l-232 -207v602q0 22 15.5 37
t37.5 15h682q22 0 37.5 -15t15.5 -37v-399z" />
    <glyph glyph-name="uniE613" unicode="&#xe613;" horiz-adv-x="1000" 
d="M125 646v-625h875v625h-875zM938 125l-126 209l-141 -119l-109 181l-375 -312v500h750zM250 427q0 39 27.5 66.5t66.5 27.5t66.5 -27.5t27.5 -66.5t-27.5 -66t-66.5 -27t-66.5 27t-27.5 66zM875 771h-875v-625h62v562h813v63z" />
    <glyph glyph-name="uniE614" unicode="&#xe614;" 
d="M512 -65q-91 0 -174 35.5t-143 95.5t-95 143t-35 173.5t35 173.5t95 143t143 95.5t174 35.5t173.5 -35.5t142.5 -95.5t95.5 -143t35.5 -173.5t-35.5 -173.5t-95.5 -143t-142.5 -95.5t-173.5 -35.5zM512 766q-104 0 -192.5 -51.5t-140 -139.5t-51.5 -192t51.5 -192.5
t140 -140t192.5 -51.5t192.5 51.5t139.5 140t51 192.5t-51 192t-139.5 139.5t-192.5 51.5zM512 766z" />
    <glyph glyph-name="uniE615" unicode="&#xe615;" 
d="M706 541q-12 9 -27 6.5t-24 -14.5l-196 -267l-92 114q-9 12 -24 13.5t-26.5 -8t-13 -24.5t7.5 -26l121 -151q11 -13 28 -13h1q18 0 28 15l225 305q8 12 6 26.5t-14 23.5zM512 821q-91 0 -174.5 -36t-143.5 -96t-95.5 -143t-35.5 -174.5t35.5 -174.5t95.5 -143
t143.5 -95.5t174.5 -35.5t174 35.5t143 95.5t96 143t36 174.5t-36 174.5t-96 143t-143 96t-174 36zM512 10q-98 0 -181.5 48.5t-132 132t-48.5 181.5t48.5 181t132 131.5t181.5 48.5t181 -48.5t131.5 -131.5t48.5 -181t-48.5 -181.5t-131.5 -132t-181 -48.5z" />
    <glyph glyph-name="uniE616" unicode="&#xe616;" horiz-adv-x="1000" 
d="M879 850h-547q-30 0 -51.5 -21t-21.5 -52v-54h-109q-30 0 -51.5 -21.5t-21.5 -51.5v-601q0 -31 21.5 -52t51.5 -21h729q30 0 51.5 21t21.5 52v728q0 31 -21.5 52t-51.5 21zM205 30q-31 0 -52 21.5t-21 51.5v492q0 30 21 51.5t52 21.5h54v-619q0 -10 3 -19h-57zM897 103
q0 -30 -21 -51.5t-52 -21.5h-437q-30 0 -51.5 21.5t-21.5 51.5v620q0 30 21.5 51.5t51.5 21.5h437q31 0 52 -21.5t21 -51.5v-620zM539 711h-152v-191h152v191zM387 387h456v57h-456v-57zM387 254h456v57h-456v-57zM387 121h456v57h-456v-57zM615 711v-57h228v57h-228z
M615 520h228v58h-228v-58z" />
    <glyph glyph-name="uniE617" unicode="&#xe617;" 
d="M626 -93l-1 -1l-209 229l109 119l117 -129l257 282l112 -122v595l-996 -996h631zM648 -116h363v399z" />
    <glyph glyph-name="uniE618" unicode="&#xe618;" 
d="M829 73h-88v465q0 7 -4.5 11t-10.5 4h-117q-7 0 -11 -4t-4 -11v-465h-19v348q0 7 -4.5 11.5t-10.5 4.5h-117q-7 0 -11 -4.5t-4 -11.5v-348h-19v560q0 6 -4.5 10.5t-10.5 4.5h-117q-7 0 -11.5 -4.5t-4.5 -10.5v-559q-27 4 -45.5 25t-18.5 49v526q0 6 -4.5 10.5t-10.5 4.5
t-10.5 -4.5t-4.5 -10.5v-526q0 -44 31 -74.5t75 -30.5h556q6 0 10.5 4t4.5 10.5t-4.5 11t-10.5 4.5zM624 523h87v-450h-87v450zM458 406h86v-333h-86v333zM378 618v-545h-86v545h86z" />
    <glyph glyph-name="uniE619" unicode="&#xe619;" 
d="M514 768q80 0 149.5 -30t122 -82.5t82.5 -122.5t30 -150q0 -79 -30 -148.5t-82.5 -122t-122 -82.5t-149.5 -30t-149.5 30t-122 82.5t-82.5 122t-30 148.5q0 80 30 150t82.5 122.5t122 82.5t149.5 30z" />
    <glyph glyph-name="uniE61A" unicode="&#xe61a;" 
d="M903 313q-7 0 -182 -78l24 193q0 8 -4.5 14t-11.5 7q-15 1 -29 1q-90 0 -157.5 -59.5t-78.5 -148.5q-12 -98 49 -175.5t158 -89.5q15 -2 29 -2q90 0 157.5 60t78.5 149q7 61 -16 117q-4 12 -17 12zM899 189q-9 -76 -66 -126.5t-133 -50.5q-12 0 -24 1q-83 10 -134.5 76
t-41.5 148q9 76 66.5 126.5t133.5 50.5h6l-25 -206q-1 -11 7.5 -17t17.5 -2q135 59 186 81q12 -40 7 -81zM959 388q-20 49 -63 81.5t-95 38.5q-11 2 -13 -9l-23 -187q-1 -6 5 -10q2 -2 6 -2q2 0 4 1l174 73q4 2 5.5 6t-0.5 8zM98.5 844q-13.5 0 -22.5 -9.5t-9 -22.5v-839
q0 -13 9 -22.5t22.5 -9.5t23 9.5t9.5 22.5v839q0 13 -9.5 22.5t-23 9.5zM420 234h-219q-8 0 -14 -6t-6 -14v-126q0 -8 6 -13.5t14 -5.5h262q-43 67 -43 148v17zM181 458v-127q0 -8 6 -13.5t14 -5.5h235q22 58 66 101.5t102 63.5h-403q-8 0 -14 -5.5t-6 -13.5zM812 720h-611
q-8 0 -14 -5.5t-6 -13.5v-126q0 -8 6 -14t14 -6h611q8 0 13.5 6t5.5 14v126q0 8 -5.5 13.5t-13.5 5.5z" />
    <glyph glyph-name="uniE61B" unicode="&#xe61b;" 
d="M69 479l2 4q5 17 14.5 24t26.5 7h198h67q11 0 14 10q27 84 83 254q8 27 35 28q29 0 38 -27q13 -38 60 -183q19 -58 23 -71q3 -11 14 -11h234h35q27 -1 35 -25q9 -26 -13 -43q-6 -5 -45 -33q-136 -98 -175 -126q-6 -5 -3 -14q18 -56 60 -184q22 -67 22 -69
q5 -16 0.5 -27.5t-13.5 -17.5q-22 -17 -47 1q-157 114 -215 156q-9 6 -17 0q-29 -21 -102 -74t-113 -82q-15 -13 -37.5 -6t-24.5 32q-1 8 3 20q43 135 81 251q3 9 -5 15q-30 21 -102.5 73.5t-111.5 81.5q-12 8 -21 31v5zM511 706h-1h-1q-3 -7 -3 -8q-10 -28 -21 -63
q-3 -9 -20 -60.5t-26 -79.5q-10 -28 -38 -33h-23q-83 3 -126 4q-9 0 -31 1t-34 2h-49l9 -7q190 -127 202 -136q26 -17 17 -47q-1 -1 -73 -234l-3 -12l8 5q5 4 14 11.5t12 9.5q132 111 155 130q15 12 31.5 11.5t31.5 -12.5q63 -53 163 -137q1 0 22 -17q1 4 0 9
q-60 190 -72 226q-4 13 -3 24q1 22 26 39q45 30 197 132l5 4h-60q-34 -1 -128 -4q-47 -2 -55 -2q-44 -4 -57 36q-4 11 -28.5 85.5t-37.5 113.5z" />
    <glyph glyph-name="uniE61C" unicode="&#xe61c;" 
d="M928 1h-832q-13 0 -22.5 9.5t-9.5 22.5v703q0 13 9.5 22.5t22.5 9.5t22.5 -9.5t9.5 -22.5v-671h800q13 0 22.5 -9.5t9.5 -22.5t-9.5 -22.5t-22.5 -9.5zM191 159q-11 0 -19 7q-11 8 -13 21t6 23l192 257q8 10 20.5 12t22.5 -5l171 -115l303 241q10 8 23 6.5t21.5 -12
t7 -23.5t-12.5 -21l-320 -255q-19 -15 -38 -2l-165 111l-174 -232q-10 -13 -25 -13z" />
    <glyph glyph-name="uniE61D" unicode="&#xe61d;" 
d="M513.5 541q-63.5 0 -109 -45t-45.5 -108.5t45.5 -109t109 -45.5t108.5 45.5t45 109t-45 108.5t-108.5 45zM513.5 284q-42.5 0 -73 30.5t-30.5 73t30.5 72.5t73 30t72.5 -30t30 -72.5t-30 -73t-72.5 -30.5zM839 502h-14l-2 3l-4 -2l4 3q-4 10 -8 18l-1 2l11 11
q30 31 30 74t-30 74l-14 14q-31 30 -74 30t-74 -30l-10 -11l-3 1q-9 4 -20 8l-2 1v15q0 44 -31 74.5t-74 30.5h-20q-43 0 -73.5 -30.5t-30.5 -74.5v-15l-3 -1q-10 -4 -19 -8l-3 -1l-11 11q-30 30 -73.5 30t-73.5 -30l-14 -14q-31 -31 -31 -74t31 -74l10 -11l-1 -2
q-3 -8 -7 -18l-2 -4h-15q-43 0 -74 -31t-31 -74v-20q0 -43 31 -73.5t74 -30.5h15l2 -4q4 -11 7 -18l1 -3l-10 -11q-31 -30 -31 -73.5t31 -73.5l14 -14q30 -31 73.5 -31t73.5 31l11 10l3 -1q8 -4 19 -8l3 -1v-15q0 -43 30.5 -73.5t73.5 -30.5h20q43 0 74 30.5t31 73.5v15l2 1
q11 4 20 8l2 1l11 -10q31 -31 74 -31t74 31l14 14q30 30 30 73.5t-30 73.5l-11 11l1 3q4 7 8 18l-4 1h5l1 3h14q44 0 74.5 30.5t30.5 73.5v20q0 43 -30.5 74t-74.5 31zM891 424zM766 675zM136 350zM225 135zM475 11zM550 10zM893 377q0 -5 -1 -10q0 -1 -1 -3v-2q-1 -3 -2 -5
q0 -1 -3 -5v-1q-1 -2 -1 -3q-2 -2 -5 -6l-1 -1q-3 -3 -7 -6q-12 -9 -28 -11h-1h-3h-53l-1 -4q-10 -40 -33 -78l-2 -3l38 -38q12 -12 15 -31q1 -4 0 -8v-3q0 -4 -1 -7v-2l-1 -3l-2 -5q0 -1 -2 -4l-1 -2q-1 -1 -1 -2q-3 -5 -7 -8l-14 -14q-4 -4 -8 -7q-1 -1 -3 -1l-1 -1l2 -4
l-3 3l-4 -2l-5 -1l2 -5l-3 4h-1q-2 0 -3 -1q-2 0 -7 -1h-4q-3 0 -7 1q-18 2 -31 15l-38 37l-3 -1q-38 -24 -78 -34h-3v-53v-3l-1 -2q-1 -15 -11 -28q-2 -3 -5 -6q-1 -1 -2 -1q-3 -3 -6 -5q-1 -1 -3 -1l-1 -1q-3 -2 -5 -3q-1 0 -5 -1l-1 -1q-2 0 -3 -1q-6 -1 -11 -1h-20
q-5 0 -10 1q-1 1 -3 1l-2 1q-3 1 -5 1.5t-5 2.5l-1 1q-2 0 -3 1q-2 2 -6 5l-1 1q-3 3 -6 7q-9 12 -11 27v2v3v53h-4q-40 10 -78 34l-3 1l-37 -37q-13 -13 -32 -15q-4 -1 -7 -1h-3q-5 1 -8 1q-1 0 -2 1h-2l-1 -4v5l-5 1q-1 1 -4 3l-2 1q-1 0 -2 1q-5 3 -8 7l-14 14q-4 3 -7 8
l-2 3l-1 2l-2 4q-1 2 -1 4l-1 3q-1 1 -1 2q0 2 -1 8v2q0 4 1 9q2 18 15 31l37 37l-1 3q-23 38 -34 78v4h-53h-3l-1 -4l-1 4q-15 2 -28 11l-6 6q-1 0 -1 2q-3 3 -5 6l-1 2l-4 -2l3 3v1q-2 3 -2.5 4.5t-1.5 5.5l-1 1q0 2 -1 3q-1 5 -1 10v20q0 5 1 11q1 1 1 3l1 2l2 5q0 1 2 5
l1 1q0 1 1 2q1 2 5 7l1 1q2 3 7 6q12 9 27 10l2 1h3h53v3q10 40 33 78l2 3l-37 38q-13 12 -15 31q-1 5 -1 9v2q1 5 1 7l1 3l1 2q1 3 1 5l2 4l1 1l-4 2l5 -1q0 2 1 3q3 4 7 8l14 14q3 4 8 6q0 1 3 2l2 1q2 2 4 2q1 1 4 2h3l2 1q3 1 8 1h1h1h1h8q18 -3 31 -15l37 -38l3 2
q38 23 78 33l4 1v52v4v1q2 15 11 28q3 4 6 7l2 1q3 3 6 4q0 1 2 2l1 1q4 1 5.5 2t4.5 1l2 1q2 1 3 1q5 1 10 1h20q5 0 11 -1l3 -1l2 -1q3 0 4.5 -1t5.5 -3h1l2 -2q3 -1 6 -5h1l1 -1q3 -2 6 -7q9 -12 10 -27l1 -1v-4v-52l3 -1q40 -10 78 -33l3 -2l38 38q13 12 32 15h6h2h2
q4 0 7 -1q1 0 4 -1h1l5 -2q1 0 5 -3h1q2 -1 3 -2l8 -6l14 -14q4 -4 7 -8q0 -1 1 -3l1 -2q2 -3 2 -4q1 -2 2 -5l1 -2v-3q1 -2 1 -8v-1q1 -4 0 -10q-3 -18 -15 -30l-38 -38l2 -3q23 -38 33 -78l1 -3h53q1 0 3 -1h1q16 -1 28 -11q4 -2 7 -6l1 -1q3 -4 5 -6q0 -1 1 -3l1 -1
q1 -3 2 -5q1 -1 2 -4v-2q1 -2 1 -3q1 -6 1 -11v-20z" />
    <glyph glyph-name="uniE61E" unicode="&#xe61e;" 
d="M143 -128h123v265h-123v-265zM349 -128h123v389h-123v-389zM579 -128h124v489h-124v-489zM801 -128h124v630h-124v-630zM911 618l49 278l-277 -62l85 -81l-240 -252l-119 108l-345 -356l51 -49h-1l298 307l119 -108l289 301z" />
    <glyph glyph-name="uniE61F" unicode="&#xe61f;" horiz-adv-x="1025" 
d="M0 896v-1024h1024v1024h-1024zM796 327h-227v-227h-114v227h-227v114h227v227h114v-227h227v-114z" />
    <glyph glyph-name="uniE620" unicode="&#xe620;" 
d="M966 -55l-31 523q0 29 -21 49.5t-50 20.5h-142v82q0 88 -60 147q-61 61 -149 61q-86 0 -147.5 -61t-61.5 -147v-82h-142q-29 0 -50 -21t-21 -49l-33 -524v-1q0 -30 21 -50.5t50 -20.5h766q30 0 50.5 21t20.5 50v2zM378 619q0 56 39.5 95t95.5 39t96 -39.5t40 -94.5v-83
h-271v83v0zM186 478h114l3 -84q-14 -14 -14 -34q0 -26 20 -42q11 -14 29 -14q19 0 28 14q21 13 21 42q0 20 -14 34v84h273l-1 -84q-14 -14 -14 -34q0 -26 20 -42q10 -14 29 -14t28 14q21 13 21 42q0 20 -15 34l3 84h106q31 0 40 -7.5t10 -42.5q1 -59 14 -228t13 -222
q0 -18 -11 -31.5t-26 -13.5h-706h-15q-3 1 -7 3t-10 9.5t-6 16.5q0 51 14 239t16 232q1 13 3 21t10.5 16t23.5 8z" />
    <glyph glyph-name="uniE621" unicode="&#xe621;" 
d="M511 -62q-91 0 -173.5 35.5t-142 95t-95 142.5t-35.5 174t35.5 173.5t95 142.5t142 95.5t173.5 35.5h29v-391h414l2 -31q1 -16 1 -25q0 -91 -35.5 -174t-95 -142.5t-142.5 -95t-173 -35.5zM484 775q-118 -8 -213 -83l213 -237v320zM484 385l-256 270q-51 -54 -79 -123.5
t-28 -146.5q0 -106 52 -196.5t142 -143t196 -52.5t196 52.5t143 143t53 196.5h-419zM595 497v335h27q57 0 114.5 -22.5t105 -62t79.5 -98t36 -123.5l1 -29h-363zM651 775v-222h247q-17 89 -88.5 150.5t-158.5 71.5z" />
    <glyph glyph-name="uniE622" unicode="&#xe622;" 
d="M512 48q-41 0 -84 7l-197 -119v199q-78 55 -123 135t-45 171q0 107 60 197.5t163.5 143t225.5 52.5t225.5 -52.5t163.5 -143t60 -197.5t-60 -197.5t-163.5 -143t-225.5 -52.5zM512 778q-107 0 -197.5 -45t-143 -122.5t-52.5 -169.5q0 -84 45 -156.5t123 -119.5l-2 -130
l132 80q48 -11 95 -11q107 0 197.5 45t143 123t52.5 169.5t-52.5 169t-143 122.5t-197.5 45zM736.5 385q-23.5 0 -40 16.5t-16.5 39.5t16.5 39.5t40 16.5t40 -16.5t16.5 -39.5t-16.5 -39.5t-40 -16.5zM512 385q-23 0 -39.5 16.5t-16.5 39.5t16.5 39.5t39.5 16.5t39.5 -16.5
t16.5 -39.5t-16.5 -39.5t-39.5 -16.5zM287.5 385q-23.5 0 -40 16.5t-16.5 39.5t16.5 39.5t40 16.5t40 -16.5t16.5 -39.5t-16.5 -39.5t-40 -16.5z" />
    <glyph glyph-name="uniE623" unicode="&#xe623;" 
d="M305 420h408v-61h-408v61zM305 302h408v-61h-408v61zM305 184h408v-61h-408v61zM842 691h-230q0 42 -30 72t-72.5 30t-72.5 -30t-30 -72h-229q-11 0 -18.5 -7.5t-7.5 -18.5v-664q0 -11 7.5 -18.5t18.5 -7.5h664q10 0 17.5 7.5t7.5 18.5v664q0 11 -7.5 18.5t-17.5 7.5z
M510 742q21 0 36 -15t15 -36.5t-15 -36t-36 -14.5t-36 14.5t-15 36t15 36.5t36 15zM802 40h-585v585h88v-76q0 -11 7.5 -18.5t18.5 -7.5h358q10 0 17.5 7.5t7.5 18.5v76h88v-585z" />
    <glyph glyph-name="uniE624" unicode="&#xe624;" 
d="M711 148l71 -69q12 -12 12 -29q0 -16 -11.5 -28t-28.5 -12q-16 0 -28 11l-625 605q-12 12 -12 29t11.5 28.5t28.5 11.5q16 0 28 -11l109 -105q118 56 246 56q82 0 161.5 -24.5t135.5 -59.5t100 -73t65.5 -66.5t21.5 -38.5t-20.5 -36.5t-54.5 -60t-91 -69.5t-119 -59z
M502 574q-94 0 -158 -71l72 -69q34 41 86 41q46 0 79 -33t33 -79q0 -50 -38 -84l71 -69q67 63 67 153q0 87 -62 149t-150 62zM530 112q-2 0 -8.5 -0.5t-9.5 -0.5q-88 0 -169.5 23.5t-137 57.5t-97.5 71.5t-61.5 67t-18.5 42.5q0 12 29.5 48.5t76.5 74.5z" />
    <glyph glyph-name="uniE625" unicode="&#xe625;" 
d="M962 315l-450 349l-450 -349v142l450 350l450 -350v-142zM850 328v-338h-226v225h-224v-225h-226v338l338 253z" />
    <glyph glyph-name="uniE626" unicode="&#xe626;" 
d="M798 730l-29 29l-29 29q-58 60 -89 84t-60 24h-315q-65 0 -111.5 -46t-46.5 -112v-708q0 -66 46.5 -112t111.5 -46h472q65 0 111.5 46t46.5 112v551q0 29 -24 60t-84 89zM827 30q0 -33 -23 -56t-56 -23h-472q-33 0 -56 23t-23 56v708q0 33 23 56t56 23h287q10 -2 16 -9
t8.5 -19.5t3 -21.5t0.5 -27v-120q0 -16 11.5 -27.5t27.5 -11.5h118q20 0 30 -1t23.5 -4t19.5 -11.5t6 -22.5v-512z" />
    <glyph glyph-name="uniE627" unicode="&#xe627;" 
d="M844 836h-61q-13 0 -24 -7.5t-11 -19.5t11.5 -22.5t23.5 -10.5h61q26 0 43 -17t17 -43v-693q0 -27 -17 -43.5t-43 -16.5h-648q-29 0 -52.5 17t-23.5 43v693q0 26 17 43t43 17h76q23 0 23 33q0 27 -23 27h-76q-60 0 -90 -33.5t-30 -88.5v-685q0 -57 33.5 -91.5t93.5 -34.5
h650q62 0 94.5 32t32.5 94v685q0 54 -32 88t-88 34zM256 564.5q0 -12.5 9 -21.5t22 -9h452q12 0 21 9t9 21.5t-9 21.5t-21 9h-452q-13 0 -22 -9t-9 -21.5zM737 429h-450q-13 0 -22 -9t-9 -21.5t9 -22t22 -9.5h452q12 0 21 9.5t9 21.5q-1 13 -10 22t-22 9zM737 248h-450
q-13 0 -22 -9t-9 -21.5t9 -21.5t22 -9h452q12 0 21 9t9 22q-1 13 -10 21.5t-22 8.5zM408 760h210q18 0 31.5 16t13.5 37t-13.5 36.5t-32.5 15.5h-209q-19 0 -32.5 -15.5t-13.5 -36.5t13.5 -37t32.5 -16z" />
    <glyph glyph-name="uniE628" unicode="&#xe628;" 
d="M870 7h-713q-38 0 -64.5 26.5t-26.5 64.5v347h895v-347q0 -38 -27 -64.5t-64 -26.5zM632 244l-36 -128h219l36 128h-219zM66 664q0 38 26.5 64.5t64.5 26.5h713q37 0 64 -26.5t27 -64.5v-91h-895v91z" />
    <glyph glyph-name="uniE629" unicode="&#xe629;" 
d="M314 708h562q30 0 51.5 -24t21.5 -58v-484q0 -34 -21.5 -58t-51.5 -24h-728q-30 0 -51.5 24t-21.5 58v388zM534 578q-16 0 -27 -12.5t-11 -30.5v-61h84v104h-46zM609 578v-407h123v407h-123zM762 578v-104h84v61q0 18 -11 30.5t-27 12.5h-46zM846 441h-84v-107h84v107z
M846 301h-84v-130h46q16 0 27 12.5t11 30.5v87zM580 171v130h-84v-87q0 -18 11 -30.5t27 -12.5h46zM496 334h84v107h-84v-107z" />
    <glyph glyph-name="uniE62A" unicode="&#xe62a;" 
d="M746 74h-466v444q-32 -16 -83.5 -41t-67.5 -33q-52 105 -58 115q-8 16 -5.5 24t17.5 17q18 10 156 96h127q1 -61 65 -93q72 -36 153 -9q37 12 57 39.5t19 62.5h132q23 -17 24 -18q13 -7 59.5 -30t71.5 -36q5 -3 9.5 -11t3.5 -11q-12 -29 -64 -146q-107 52 -146 72
q-2 -44 -2 -45q-1 -75 -2 -397z" />
    <glyph glyph-name="uniE62B" unicode="&#xe62b;" 
d="M949 223q-1 2 -9.5 16.5t-12.5 18t-17 12.5t-33 18l-68 31v53q20 16 27 65q9 -2 17.5 9.5t9.5 22.5q1 13 -3 28t-15 13q6 44 5 58q-3 34 -34 60.5t-77 26.5t-76.5 -26.5t-33.5 -60.5q-1 -14 4 -58q-10 2 -14 -13t-3 -28q0 -11 9 -22.5t18 -9.5q3 -22 9.5 -38.5
t12.5 -21.5l5 -5l-46 -36q10 -6 54.5 -11.5t52.5 -17.5q30 -47 24 -251h204q5 143 -10 167zM526 314q-13 5 -24 10t-18.5 8t-13.5 6t-9.5 5t-6 3t-3.5 2h-1l-1 59q3 2 7 6.5t12 23.5t11 43q10 -2 20 11t11 24q1 16 -3.5 32t-16.5 14q6 49 5 65q-4 38 -38 67.5t-85 29.5
t-85 -29.5t-38 -67.5q-1 -17 5 -65q-11 2 -15.5 -14.5t-4.5 -31.5q1 -11 11 -24t20 -11q3 -24 10.5 -42.5t13.5 -24.5l6 -6l-1 -59q-14 -9 -76 -34q-13 -6 -43.5 -18t-44.5 -18t-30.5 -16t-23.5 -21q-16 -25 -11 -185h614q5 160 -11 185q-7 11 -23.5 21t-30.5 16t-44.5 18
t-43.5 18z" />
    <glyph glyph-name="uniE62C" unicode="&#xe62c;" 
d="M784 157q209 -74 209 -125v-109h-962v109q0 51 209 125q96 34 131 70t35 98q0 22 -23 49.5t-33 75.5q-2 12 -9 18t-14.5 8t-14.5 17.5t-9 44.5q0 16 5 26t9 13l5 4q-9 51 -13 90q-4 55 42 114.5t161 59.5t162 -59.5t41 -114.5l-13 -90q19 -9 19 -43q-2 -29 -9 -44.5
t-14.5 -17.5t-14.5 -8t-9 -18q-8 -50 -32 -76.5t-24 -48.5q0 -62 36 -98t130 -70z" />
    <glyph glyph-name="uniE62D" unicode="&#xe62d;" 
d="M883 125q4 -14 7 -36t3 -44.5t-3.5 -42.5t-10.5 -30q-5 -7 -26 -13.5t-53 -12.5q-31 -5 -71 -11q-39 -5 -77.5 -8.5t-75.5 -5t-64.5 -1.5t-63.5 2t-75 5q-38 3 -76 7t-69 9.5t-53 10t-27 9.5q-9 7 -14.5 45t4.5 99q5 35 28 53.5t53 29t63 18.5t58 25q19 12 30 23
t15.5 22.5t4.5 23.5t-1 27q-2 23 -15 35t-28 26q-8 6 -13.5 17.5t-10.5 23.5q-6 13 -10 30q-2 2 -6 7q-3 5 -7 13.5t-9 25t-6.5 29t0.5 22.5q1 11 5 19q0 35 4 71q4 30 13 64.5t30 61.5q18 26 39.5 43t44.5 26t46.5 12.5t45.5 3.5q23 -2 38 -5.5t24 -8.5t16 -12.5t14 -14.5
h19q9 0 18 -2.5t17.5 -9.5t18.5 -20q24 -31 35 -67t16 -69q6 -37 7 -74q2 -5 3 -12t1.5 -17.5t-1.5 -25.5q-2 -21 -6.5 -32.5t-9.5 -17.5q-5 -7 -11 -10q-4 -17 -9 -30q-5 -12 -11 -24q-6 -11 -14 -17q-17 -15 -28.5 -24.5t-15.5 -32.5q-3 -15 -2 -29t8 -29t21.5 -28
t41.5 -23q23 -10 51.5 -17.5t54.5 -17t46.5 -25t28.5 -39.5zM555 158q3 6 0.5 13t-8 13t-12.5 13h-47q-7 -7 -11 -13q-4 -5 -6.5 -11t0.5 -12q7 -13 12 -25q5 -10 11 -16q-2 -9 -6 -26t-7.5 -35t-6 -33.5t-2.5 -23.5q0 -6 4.5 -13t10.5 -14.5t13 -12.5t12 -5t12 5t13.5 11.5
t11.5 14t5 13.5t-3 20q-3 15 -7 34q-4 18 -8 35.5t-7 27.5q6 5 12 14.5t14 25.5zM555 158z" />
    <glyph glyph-name="uniE62E" unicode="&#xe62e;" 
d="M797 271l-10 9q-40 30 -33 82q7 50 -8 98t-45 83t-70.5 58t-82.5 27q-108 12 -187.5 -48.5t-92.5 -163.5q-8 -61 13 -116.5t60.5 -93.5t96.5 -55.5t117 -6.5q26 5 43 -14q1 -1 32 -28q-25 -13 -31.5 -32.5t-4.5 -49.5q4 -57 -34 -73q-60 -24 -104 4q-14 10 -27 51
q-2 7 -2.5 14.5t0.5 17t1 14.5q-1 38 -35 52q-34 15 -61 -11q-33 -32 -33 -33q-17 -15 -37.5 -18t-37.5 9q-30 22 -52 51q-12 17 -8.5 38.5t18.5 37.5q5 6 16.5 16.5t15.5 15.5q25 25 15 57q-11 34 -47 39q-1 0 -53 2q-29 2 -45.5 18t-17.5 46q-1 16 0 35q1 30 19 47.5
t48 18.5h21h22q39 2 52 36t-14 61q-18 18 -28 29q-9 9 -12 13q-31 52 39 109q21 17 44.5 16t43.5 -19l16 -16q11 -11 17 -16q28 -26 62 -11q33 14 33 50q-1 32 1 49q1 24 15.5 40.5t37.5 19.5q30 4 61 0q21 -3 35.5 -19.5t15.5 -39.5q1 -8 0.5 -26t0.5 -25q3 -38 36 -51.5
t61 13.5q4 4 11 11.5t10 10.5q11 11 15 14q52 40 114 -33q19 -22 17.5 -46.5t-21.5 -44.5q-26 -26 -32 -33q-25 -31 -9 -63q16 -31 52 -31h44q26 -1 43 -16t20 -39q4 -28 0 -56q-3 -25 -20.5 -40t-42.5 -16h-31q-42 4 -66 -29zM338 429q60 -62 64 -66q30 -31 67 -32t67 28
q30 30 29.5 67t-32.5 69q-6 6 -20.5 19.5t-25 24.5t-20.5 22q82 24 151 -24q53 -37 71.5 -95.5t-3.5 -119.5q-6 -18 9 -33q99 -97 159 -157q22 -23 21 -48t-24 -45q-19 -17 -41.5 -16t-41.5 20q-85 82 -158 157q-17 17 -39 9q-106 -35 -187 42q-73 69 -53 174q4 3 7 4z
M811 117q-29 -3 -31 -30q-1 -12 8.5 -22t23 -10t23 9.5t8.5 23.5q-2 27 -32 29z" />
    <glyph glyph-name="uniE62F" unicode="&#xe62f;" 
d="M655 528l-24 -54q38 -35 38 -89q0 -69 -36 -96l24 -46q59 57 59 142q0 86 -61 143zM838 716l-34 -45q105 -123 105 -286t-105 -286l35 -46q118 143 118 332q0 188 -119 331zM746 624l-31 -47q75 -81 75 -192q0 -114 -77 -195l32 -45q92 100 92 240q0 138 -91 239zM66 490
v-215q0 -22 15 -42t35 -20h150v343h-150q-20 0 -35 -22t-15 -44zM498 713l-209 -154v-352l209 -155q22 0 44.5 15t22.5 35v561q0 20 -22.5 35t-44.5 15z" />
    <glyph glyph-name="uniE630" unicode="&#xe630;" 
d="M949 457q10 10 10 26q0 15 -10 25.5t-25 10.5h-1l-261 39l-118 251q-9 23 -32 23q-12 0 -21.5 -7.5t-12.5 -19.5l-116 -247l-261 -39h-3q-14 0 -24 -10.5t-10 -25.5q0 -20 15 -31l190 -193l-45 -275q-1 -5 -1 -10q0 -14 10 -24.5t24 -10.5q10 0 19 6l236 130l232 -128
q11 -10 25 -10t24.5 10.5t10.5 25.5q0 9 -5 17l-44 269l194 197v1z" />
    <glyph glyph-name="uniE631" unicode="&#xe631;" 
d="M503 -49q-116 0 -214.5 57t-155.5 155.5t-57 214.5t57 214t155.5 155.5t214.5 57.5t214 -57.5t155.5 -155.5t57.5 -214t-57.5 -214.5t-155.5 -155.5t-214 -57zM503 799q-114 0 -211 -56.5t-153.5 -153.5t-56.5 -211t56.5 -211t153.5 -153.5t211 -56.5t211 56.5
t153.5 153.5t56.5 211t-56.5 211t-153.5 153.5t-211 56.5zM809 330q0 -14 -11.5 -23.5t-27.5 -9.5h-534q-16 0 -27.5 9.5t-11.5 23.5v96q0 14 11.5 23.5t27.5 9.5h534q16 0 27.5 -9.5t11.5 -23.5v-96z" />
    <glyph glyph-name="uniE632" unicode="&#xe632;" 
d="M743 831h-5h-655q-7 0 -12.5 -5t-5.5 -12v-858q0 -7 5.5 -12.5t12.5 -5.5h858q7 0 12 5.5t5 12.5v663zM177 697q0 7 5 12t12 5h440q8 0 13 -5t5 -12v-104q0 -7 -5 -12t-13 -5h-440q-7 0 -12 5t-5 12v104zM847 66q0 -7 -5 -12t-12 -5h-636q-7 0 -12 5t-5 12v312q0 7 5 12
t12 5h636q7 0 12 -5t5 -12v-312zM789 344q0 6 -4 10t-10 4h-83q-6 0 -10 -4t-4 -10v-83q0 -6 4 -10t10 -4h83q6 0 10 4t4 10v83z" />
    <glyph glyph-name="uniE633" unicode="&#xe633;" 
d="M625.5 801q-114.5 31 -227 0.5t-195.5 -113t-113.5 -197t0 -227.5t112.5 -195.5t197 -113.5q91 -23 178 -10t162 59q21 13 21 36q0 18 -12.5 30t-29.5 12q-10 0 -20 -5q-61 -37 -132 -48t-145 7q-93 25 -159.5 92t-91 158t0 184t91.5 159.5t158 91t184 -0.5t159.5 -92
t91 -158t-0.5 -183q-13 -50 -41 -94l1 -1q-5 -9 -5 -20q0 -17 12 -29t30 -12q23 0 36 21q32 54 48 113q31 115 0.5 227.5t-113 195t-197 113.5zM582 355q1 1 11 7t14.5 9.5t14.5 11.5t15.5 15.5t12 18.5t9.5 24.5t3 28.5q0 51 -35 88t-78 46q-93 19 -147 -40
q-26 -28 -34.5 -56.5t-8.5 -80.5h79v16q0 16 2 27t7 24t17 21.5t30 11.5q43 9 70 -18q15 -13 12.5 -38t-22.5 -39l-45 -30q-35 -23 -35 -63v-92h80v62q0 27 28 46zM514 216q-17 0 -29 -12t-12 -29t12 -29t29 -12t29 12t12 29t-12 29t-29 12z" />
    <glyph glyph-name="uniE634" unicode="&#xe634;" 
d="M999 294l-183 487h-204l80 -111h64l121 -376h-230l-62 -111h-151l-57 110h-230l121 377h64l80 111h-204l-183 -487v-309h974v309zM512 782l-240 -278h180v-254h120v254h179zM512 782z" />
    <glyph glyph-name="uniE635" unicode="&#xe635;" 
d="M519 480h-46l-33 88h-135l-31 -88h-46l123 323h45zM427 605l-49 134q-2 6 -5 22h-1q-2 -14 -5 -22l-49 -134h109zM565 480v323h92q74 0 122.5 -43t48.5 -115q0 -75 -48.5 -120t-125.5 -45h-89zM607 765v-248h47q61 0 95.5 33.5t34.5 94t-35.5 90.5t-92.5 30h-49zM916 -7
h-777q-13 0 -21.5 -8.5t-8.5 -21t8.5 -21t21.5 -8.5h777q12 0 20.5 8.5t8.5 21t-8.5 21t-20.5 8.5zM241 40h117q8 0 13 5t5 13v219q0 7 -5 12t-13 5h-117q-7 0 -12.5 -5t-5.5 -12v-219q0 -8 5.5 -13t12.5 -5zM466 195q-7 0 -12 -5.5t-5 -12.5v-119q0 -8 5 -13t12 -5h118
q7 0 12 5t5 13v119q0 7 -5 12.5t-12 5.5h-118zM692 417q-7 0 -12.5 -5t-5.5 -13v-341q0 -8 5.5 -13t12.5 -5h117q7 0 12.5 5t5.5 13v341q0 8 -5.5 13t-12.5 5h-117z" />
    <glyph glyph-name="uniE636" unicode="&#xe636;" 
d="M869 599l-174 189q-8 8 -19 8h-285q-31 0 -53 -22t-22 -53v-34h54v34q0 9 6 15.5t15 6.5h262v-183q0 -5 4 -8.5t9 -3.5h157v-404q0 -9 -6.5 -15.5t-15.5 -6.5h-67v-53h67q31 0 53 22t22 53v437q0 11 -7 18zM678 727l143 -154h-143v154zM527 650q-8 9 -20 9h-284
q-31 0 -53 -22t-22 -53v-578q0 -31 22 -53t53 -22h410q31 0 53 22t22 53v438q0 10 -7 18zM643 445h-120v130zM633 -15h-410q-9 0 -15.5 6t-6.5 15v578q0 9 6.5 15t15.5 6h272l3 -3v-169q0 -6 3.5 -9.5t8.5 -3.5h144v-414q0 -9 -6 -15t-15 -6zM565 113h-293q-9 0 -9 -9.5
t9 -9.5h293q10 0 10 9.5t-10 9.5zM565 193h-293q-9 0 -9 -9.5t9 -9.5h293q10 0 10 9.5t-10 9.5zM565 273h-293q-9 0 -9 -9.5t9 -9.5h293q10 0 10 9.5t-10 9.5zM272 332h134q10 0 10 9.5t-10 9.5h-134q-9 0 -9 -9.5t9 -9.5zM306 490q0 -6 7 -6q1 -14 10.5 -25t22 -11t22 11
t10.5 25q7 0 7 6q0 5 -4 7q2 6 2 12q0 17 -11 28.5t-26.5 11.5t-26.5 -11.5t-11 -28.5q0 -6 2 -12q-4 -2 -4 -7zM266 384h159q4 0 4 3v13q0 1 -1 2q-24 23 -54 31h-2h-2h-2q-9 -5 -22.5 -5t-22.5 5h-2h-1h-1q-32 -7 -55 -31q-1 -1 -1 -2v-13q0 -3 3 -3z" />
    <glyph glyph-name="uniE637" unicode="&#xe637;" 
d="M653 429q-9 6 -20.5 4.5t-18.5 -9.5l-133 -165l-44 49q-7 8 -18.5 9t-20.5 -6t-10 -18.5t7 -19.5l66 -74q8 -9 21 -9h1q13 0 21 10l154 191q7 9 5.5 20t-10.5 18zM792 719h-95q21 -25 23 -57h43v-626h-488v626h43q2 32 23 57h-95q-12 0 -20 -8.5t-8 -19.5v-683
q0 -12 8 -20.5t20 -8.5h546q11 0 19.5 8.5t8.5 20.5v683q0 11 -8.5 19.5t-19.5 8.5zM415 588h208q26 0 45 19t19 45v4q0 3 -1 6q-2 22 -17.5 38t-37.5 19q-5 1 -8 1h-28v5q0 26 -19 45t-45 19h-24q-26 0 -45 -19t-19 -45v-5h-28q-3 0 -8 -1q-22 -3 -37.5 -19t-17.5 -38
q-1 -3 -1 -6v-4q0 -26 19 -45t45 -19zM386 656v6q2 10 10.5 16.5t18.5 6.5h45q7 0 12 5t5 13v16v6q0 12 9 21t21 9h24q12 0 21 -9t9 -21v-6v-16q0 -8 5 -13t12 -5h45q10 0 18 -6.5t11 -16.5v-6v-4q0 -12 -8.5 -21t-20.5 -9h-208q-12 0 -20.5 9t-8.5 21v4zM511 705q4 -3 8 -3
t8 3q5 4 5 11v3q-3 10 -13 10t-13 -10v-3q0 -7 5 -11z" />
    <glyph glyph-name="uniE638" unicode="&#xe638;" 
d="M955 304.5q-4 5.5 -11 6.5l-43 6l-8 43q-2 7 -7.5 10.5t-11.5 2.5l-159 -29l-124 18q-6 1 -11.5 -3t-6.5 -11l-5 -31l-68 -13q-7 -1 -11 -6.5t-2 -12.5l49 -267q1 -7 7 -11q4 -3 9 -3q1 0 3 1l218 40l130 -19h2q14 0 16 14l5 33l3 1q6 1 10 6.5t3 12.5l-7 39l23 160
q1 7 -3 12.5zM864 338l2 -16l-50 7zM544 151l-22 124l41 8zM565 40l-7 36l114 -16zM916 232l-14 -101l-5 -30l-5 -34l-1 -6l-17 2l-101 15l-202 29l26 182l5 34l1 4l11 -2l101 -14l158 -23l34 -5l16 -2zM670 213q13 -2 23.5 6t12 20.5t-6 23t-20.5 12.5t-23.5 -6t-12 -20.5
t6 -23t20.5 -12.5zM853 191l-29 -31l-38 74l-71 -82q-4 2 -10.5 4t-24 5t-32 2t-30 -10.5t-22.5 -27.5l241 -35l36 -5l-2 11zM355 192q0 31 -22 53t-53 22t-53 -22t-22 -53v-21h-89v545h638v-328h51v354q0 11 -7.5 18.5t-17.5 7.5h-690q-11 0 -18.5 -7.5t-7.5 -18.5v-596
q0 -11 7.5 -18.5t18.5 -7.5h141q11 0 18.5 7.5t7.5 18.5v46q0 10 7 17t16.5 7t16.5 -7t7 -17v-46q0 -11 7.5 -18.5t17.5 -7.5h157v51h-131v21zM247 528q0 -5 3 -8t8 -3q2 -24 18 -43t38 -19t38 19t18 43q5 0 8 3t3 8q0 8 -6 11q3 11 3 22q0 28 -18.5 48t-45.5 20t-45.5 -20
t-18.5 -48q0 -11 3 -22q-6 -3 -6 -11zM171 373v-21q0 -6 6 -6h274q6 0 6 6v21q0 3 -2 4q-40 39 -93 52q-1 1 -3 1h-3q-2 0 -3 -1q-16 -8 -39 -8t-39 8q-2 1 -3 1h-2h-2q-54 -13 -95 -53q-2 -1 -2 -4zM497 435h191q4 0 7 3t3 7t-3 7t-7 3h-191q-5 0 -8 -3t-3 -7t3 -7t8 -3z
M497 537q-11 0 -11 -10.5t11 -10.5h191q10 0 10 10q0 5 -3 8t-7 3h-191z" />
    <glyph glyph-name="uniE639" unicode="&#xe639;" 
d="M293 108zM231 108.5q0 25.5 18 44t44 18.5t44.5 -18.5t18.5 -44t-18.5 -44t-44.5 -18.5t-44 18.5t-18 44zM431 830h-275q-14 0 -24.5 -10t-10.5 -24v-825q0 -14 10.5 -24t24.5 -10h275q14 0 24 10t10 24v825q0 14 -10 24t-24 10zM225 727h137v-343h-137v343zM293 2
q-44 0 -75 31t-31 75.5t31 75.5t75 31t75.5 -31t31.5 -75.5t-31.5 -75.5t-75.5 -31zM712.5 181.5q-24.5 -3.5 -40 -23t-12 -44.5t23 -40t44.5 -12t40 23t12 44.5t-23 40t-44.5 12zM902 12l-104 790q-2 14 -13 22.5t-25 6.5l-263 -35q-14 -2 -22.5 -13t-6.5 -24l105 -791
q2 -13 13 -21.5t24 -6.5l264 35q13 1 21.5 12t6.5 25zM576 706l131 17l44 -329l-132 -17zM733.5 19.5q-42.5 -5.5 -76 20.5t-39.5 68.5t20 76t68.5 39.5t76.5 -20t39.5 -68.5t-20.5 -76.5t-68.5 -39.5z" />
    <glyph glyph-name="uniE63A" unicode="&#xe63a;" 
d="M684.5 577q-16.5 -9 -22 -27t3.5 -34.5t27 -21.5t34.5 4t21.5 27t-4 34.5t-26.5 21.5t-34 -4zM223 464l2 4l402 221l31 -9q2 -9 3 -9q8 -16 26 -21.5t35 3.5q0 1 6 6l31 -9l70 -128l-9 -31l-8 -2q-15 -8 -21 -25h134l-90 164l-100 183l-183 -100l-305 -167l-183 -100
l79 -145v113q0 21 15 36.5t37 15.5h28zM527 486q-16 -2 -28 -10q-9 -6 -10 -12h149q-4 18 -11 31q-23 43 -75 54t-101 -16q-45 -24 -65 -69h73q3 13 14 24l-11 15q-1 3 1 4l15 10q3 2 4 -1l10 -14q13 7 28 9q2 1 3 -2l6 -20q1 -1 0 -2t-2 -1zM803 231q-19 0 -32 -13.5
t-13 -32t13 -31.5t32 -13t32 13t13 31.5t-13 32t-32 13.5zM351.5 231q-18.5 0 -32 -13.5t-13.5 -32t13.5 -31.5t32 -13t31.5 13t13 31.5t-13 32t-31.5 13.5zM751 412h-348h-208v-452h208h348h209v208v35v209h-209zM904 113l-23 -23l-3 1q-3 1 -5 1q-19 0 -32 -13.5
t-13 -31.5v-3q0 -2 0.5 -3.5t0.5 -2.5l-22 -23h-459l-23 23l1 4q1 3 1 5q0 18 -13.5 31.5t-31.5 13.5h-4l-2 -2h-3l-23 23v146l23 22l3 -1h6q18 0 31.5 13t13.5 32q0 1 -1 3v2q-1 2 -1 3l23 23h459l22 -23l-1 -3v-5q0 -19 13 -32t32 -13h3q1 0 2.5 0.5t2.5 0.5l23 -22v-146z
M577.5 304q-56.5 0 -96.5 -34.5t-40 -83.5t40 -84t96.5 -35t96.5 35t40 84t-40 83.5t-96.5 34.5zM589 116v-21q0 -3 -3 -3h-18q-3 0 -3 3v19q-21 1 -35 10q-2 1 -1 3l6 21q0 1 1.5 1.5t2.5 0.5q16 -10 33 -10q21 0 21 15q0 11 -22 20q-41 14 -41 42q0 15 10 26t26 14v19
q0 3 3 3h18q3 0 3 -3v-17q15 -1 29 -8q2 -1 1 -3l-6 -21q0 -1 -1 -1.5t-3 -0.5q-14 8 -28 8q-19 0 -19 -13q0 -9 26 -19q37 -14 37 -44q0 -15 -10 -26.5t-27 -14.5z" />
    <glyph glyph-name="uniE63B" unicode="&#xe63b;" 
d="M907 39h-791q-35 0 -59.5 26t-24.5 63v512q0 37 24.5 63.5t59.5 26.5h791q35 0 59.5 -26.5t24.5 -63.5v-512q0 -37 -24.5 -63t-59.5 -26zM116 667q-8 0 -14 -8t-6 -19v-512q0 -10 6 -18t14 -8h791q9 0 15 8t6 18v512q0 11 -6 19t-15 8h-791zM512 353q-10 0 -19 5
l-412 289q-11 8 -13 21t5.5 23.5t20.5 13t23 -5.5l413 -289q11 -8 13 -20.5t-5 -23.5q-10 -13 -26 -13zM512 353q-17 0 -26 13q-8 11 -5.5 23.5t12.5 20.5l410 287q11 7 24 5t20.5 -12.5t5 -23.5t-12.5 -21l-410 -287q-8 -5 -18 -5zM99 62q-13 0 -22.5 9t-9.5 22.5t10 22.5
l331 338q9 9 22.5 9t22.5 -9.5t9 -22.5t-9 -22l-331 -338q-10 -9 -23 -9zM930 56q-13 0 -22 9l-332 338q-9 9 -9 22t9 22.5t22.5 9.5t22.5 -9l332 -338q9 -9 9 -22t-9.5 -22.5t-22.5 -9.5z" />
    <glyph glyph-name="uniE63C" unicode="&#xe63c;" 
d="M518 288l42 -41l-27 -27q-2 -2 -4.5 -6.5t-1.5 -16.5t12 -24l211 -210q1 -1 2.5 -2t6 -3t9.5 -3t11.5 0t13.5 5l105 103q2 3 4.5 7.5t1.5 17.5t-12 23l-209 207q-1 1 -3 2.5t-7 4t-10.5 4t-13 0t-14.5 -7.5l-28 -28l-44 44zM489 409l-227 223v69l-133 79l-66 -64l80 -128
l71 -1l224 -220zM124 33q0 4 1 9.5t9.5 15t24.5 9.5q4 0 9.5 -1t14.5 -9.5t10 -23.5q-1 -3 -2 -8.5t-9.5 -14.5t-23.5 -10l-30 -30q2 -1 5 -3.5t13.5 -7.5t21 -6.5t25 2.5t28.5 15l404 433q5 -3 14 -8t38 -13t58 -8q9 0 24.5 1t53.5 14t67 37q5 4 13 11.5t26 32.5t28 52
t10.5 69t-17.5 85l-144 -140l-123 121l145 138l-11 5q-7 4 -29.5 9t-46 4.5t-59.5 -10.5t-70 -32q-3 -2 -7.5 -5.5t-16.5 -15.5t-22.5 -25.5t-21.5 -35t-16 -44.5q-1 -4 -2.5 -11t-3 -28t0.5 -42t12.5 -49t28.5 -52l-454 -373l-3 -3q-2 -2 -6.5 -9t-6 -14.5t-3 -19
t3.5 -22.5zM124 33q0 -4 1.5 -9t10 -14.5t22.5 -9.5l-30 -30q-39 34 -43 52z" />
    <glyph glyph-name="uniE63D" unicode="&#xe63d;" 
d="M881 376l-483 520h-223l483 -520l-483 -484h223z" />
    <glyph glyph-name="uniE63E" unicode="&#xe63e;" 
d="M897 -1q0 -27 -18.5 -45.5t-45.5 -18.5h-640q-27 0 -45.5 18.5t-18.5 45.5v768q0 27 18.5 45.5t45.5 18.5h383v-255q0 -27 19 -45.5t45 -18.5l257 -1v-512zM863 593l3 -3l-1 1q5 -7 2.5 -11.5t-10.5 -4.5h-186q-12 0 -21 9t-9 21v186q0 8 4.5 10.5t11.5 -2.5l-1 1l3 -3z
" />
    <glyph glyph-name="uniE63F" unicode="&#xe63f;" 
d="M770 137q0 -107 -76 -183.5t-184 -76.5t-184 76.5t-76 183.5q0 97 62.5 169.5t156.5 87.5v468q0 12 8 20t19.5 8t19.5 -8t8 -20v-55h136q12 0 20 -8t8 -19t-8 -19t-20 -8h-136v-82h136q12 0 20 -8t8 -19.5t-8 -19.5t-20 -8h-136v-220q103 -5 174.5 -80t71.5 -179z
M305 137q0 -85 60 -145t145 -60t145 60t60 145t-60 145t-145 60t-145 -60t-60 -145z" />
    <glyph glyph-name="uniE640" unicode="&#xe640;" horiz-adv-x="1025" 
d="M927 75q5 -22 -2.5 -41.5t-24 -34t-39.5 -23t-50 -8.5q-170 -1 -305 -1h-306q-32 0 -56.5 11.5t-39.5 28.5t-20 37.5t1 36.5q6 13 11 26q5 12 11 26.5t13 30.5l35 83h102l-39 -114h580l-39 114h98q19 -46 35 -83q6 -16 12.5 -31.5t11 -27.5t8 -20.5t3.5 -9.5zM474 241
q-17 20 -39 49.5t-45.5 61t-46.5 62.5t-41 53q-21 24 -16.5 40t31.5 16q14 -1 38.5 0.5t40.5 1.5q18 0 22.5 10.5t4.5 28.5q0 20 -0.5 44t-0.5 49t-0.5 49.5t-0.5 44.5q0 9 1.5 19t6.5 18t14 13.5t26 5.5q19 0 34.5 0.5t36.5 0.5q29 0 39.5 -14t11.5 -44v-35
q0 -21 0.5 -44.5t0.5 -46.5v-43q0 -26 5.5 -41.5t24.5 -14.5q13 0 32.5 -1t33.5 -1q25 0 31.5 -13t-9.5 -34q-17 -22 -39.5 -52.5t-46.5 -63t-47 -64t-41 -53.5q-16 -21 -31 -21.5t-31 19.5z" />
    <glyph glyph-name="uniE641" unicode="&#xe641;" 
d="M544 57v391h-64v-391l-90 90l-45 -46l167 -167l167 167l-45 46zM767 608q-12 96 -84.5 161t-170.5 65t-170.5 -65t-84.5 -161q-82 -5 -138.5 -65t-56.5 -143q0 -86 61 -147.5t148 -61.5h112v64h-112q-60 0 -102.5 42.5t-42.5 102.5q0 57 39 98.5t96 45.5l53 4l7 53
q9 72 63.5 120.5t127.5 48.5t127.5 -48.5t63.5 -120.5l7 -53l53 -4q57 -4 96 -45.5t39 -98.5q0 -60 -42.5 -102.5t-102.5 -42.5h-112v-64h112q87 0 148 61.5t61 147.5q0 83 -56.5 143t-138.5 65z" />
    <glyph glyph-name="uniE642" unicode="&#xe642;" horiz-adv-x="1025" 
d="M651 326l21 21l-144 144l-145 -144l22 -21l108 108v-438h30v437zM798 534q0 1 0.5 3.5t0.5 3.5q0 96 -68.5 164t-164.5 68q-68 0 -124.5 -36t-85.5 -96q-25 13 -53 13q-44 0 -77.5 -28.5t-40.5 -71.5q-54 -18 -88 -65t-34 -105q0 -75 52.5 -127.5t127.5 -52.5h180v30
h-180q-62 0 -106 44t-44 106q0 48 28 87t73 55l17 5l3 18q6 33 31 54t58 21q21 0 40 -10l27 -14l14 28q25 53 74.5 84t107.5 31q84 0 143.5 -59t59.5 -143q0 -1 -1 -2v-4v-31h30q56 0 95.5 -40t39.5 -95.5t-39.5 -95t-95.5 -39.5h-6h-159v-30h166q68 0 116 48.5t48 116.5
t-48.5 116.5t-116.5 48.5z" />
    <glyph glyph-name="uniE643" unicode="&#xe643;" 
d="M64 833h445v-897h-445v897zM116 611h114v113q-83 0 -102 -1q-3 0 -7 -5t-4 -9q-1 -16 -1 -98zM344 609h99q4 1 8.5 6.5t5.5 9.5q2 44 -1 82q0 4 -5.5 10t-9.5 6q-15 1 -97 1v-115zM232 160q0 81 -1 95q-1 5 -7 11t-11 6q-34 2 -79 0q-5 0 -11 -4.5t-6 -7.5
q-1 -18 -1 -100h116zM345 273v-112h112q0 80 -1 95q0 4 -5.5 10t-10.5 6q-14 1 -95 1zM230 498q-83 0 -102 -1q-3 0 -7 -4.5t-4 -7.5q-1 -18 -1 -99h114v112zM457 498q-83 0 -100 -1q-3 0 -8 -3.5t-5 -5.5q-1 -21 -1 -104q82 0 95 1q5 0 11.5 5.5t6.5 10.5q1 14 1 97z
M679 158v-222h-106v500h387v-500h-107v222h-174zM571 500v50h389v-50h-389z" />
    <glyph glyph-name="uniE644" unicode="&#xe644;" 
d="M139 832h6h511q6 0 10 -4l141 -141q3 -3 3 -7v-290v-5h-76v223h-148v148h-371v-743h222v-75h-298v894zM436 86h194h29v-75q155 104 226 150q-90 59 -225 150v-74l-5 -1h-217h-2v-150z" />
    <glyph glyph-name="uniE645" unicode="&#xe645;" 
d="M139 237h223v-149h-223v149zM362 311l223 -149l-223 -149v298zM361 833l-148 -148v-299h74v223h149v149h373v-745h-224v-74h224h74v74v820h-522zM361 833z" />
    <glyph glyph-name="uniE646" unicode="&#xe646;" 
d="M769.5 614q-27.5 0 -47.5 -20t-20 -48t20 -47.5t47.5 -19.5t47.5 19.5t20 47.5t-20 48t-47.5 20zM5 790v-504v-239v-68h68h878h68v68v78v665h-1014zM768 375l-151 -152l-337 338l-241 -241v436h946v-597z" />
    <glyph glyph-name="uniE647" unicode="&#xe647;" 
d="M861 639q4 -8 6 -18.5t2 -22t-4 -23.5t-14 -22q-11 -11 -19.5 -19t-14.5 -14q-7 -8 -14 -13l-167 167q11 10 26 24q14 14 24 22q13 10 26.5 14t26.5 3.5t25 -4t21 -8.5q18 -10 41 -34.5t35 -51.5zM165 203q6 6 25.5 26t49.5 49l65 66l72 72l192 192l167 -168l-192 -192
l-71 -72q-36 -35 -64.5 -64t-47.5 -48t-22 -21q-9 -8 -20.5 -17t-24.5 -15q-12 -6 -36.5 -15t-50.5 -17.5t-50 -14.5t-35 -8q-25 -3 -33 7t-4 33q2 13 8.5 36.5t14 49t15 47t11.5 29.5q5 12 12 22.5t19 22.5zM165 203zM463 35h80v-80h-80v80zM626 35h80v-80h-80v80zM789 35
h80v-80h-80v80z" />
    <glyph glyph-name="uniE648" unicode="&#xe648;" horiz-adv-x="1082" 
d="M298 739q-81 1 -137.5 -44t-76.5 -115q-12 -46 -9 -92t27.5 -93t66.5 -82q27 -22 84 -70q80 -67 287 -236q91 82 284 248q18 15 41.5 34t29.5 24q46 40 72.5 88.5t32.5 95t-7 91t-42 78t-75.5 53.5t-103.5 20q-45 0 -95 -18q-102 -38 -137 -130q-31 94 -139 131
q-51 17 -103 17z" />
    <glyph glyph-name="uniE649" unicode="&#xe649;" 
d="M512 3q-7 0 -12 5l-291 295q-102 102 -102 220q0 92 56 149t148 57q37 0 66 -7.5t54 -25t40 -33t41 -45.5q26 30 41 45.5t40 33t53.5 25t66.5 7.5q92 0 148 -57t56 -149q0 -118 -102 -220l-291 -295q-5 -5 -12 -5zM311 694q-77 0 -123 -46.5t-46 -124.5q0 -104 92 -195
l278 -283l278 282q92 92 92 196q0 78 -46 124.5t-123 46.5q-33 0 -57 -6t-46 -22.5t-35.5 -30t-39.5 -44.5l-10 -12q-5 -6 -13 -6t-13 6l-10 12q-26 31 -39.5 44.5t-35.5 30t-46 22.5t-57 6z" />
    <glyph glyph-name="uniE64A" unicode="&#xe64a;" 
d="M816 230q40 -55 91 -72q-23 -68 -71 -142q-73 -111 -145 -111q-27 0 -80 18q-49 18 -85.5 18t-80.5 -19q-46 -18 -76 -18q-86 0 -170 147q-83 145 -83 285q0 130 63 212q65 83 161 83q21 0 47 -5.5t54 -19.5q30 -17 49 -23t30 -6q12 0 38 5.5t52 21.5q28 15 48 23t41 8
q67 0 121 -37q29 -19 59 -57q-44 -38 -65 -67q-37 -54 -37 -117q0 -70 39 -127zM623 679q-33 -32 -61 -42q-10 -2 -24.5 -4.5t-34.5 -4.5q1 84 44.5 145.5t142.5 84.5q2 -9 2 -13v-11q0 -34 -16 -78q-17 -42 -53 -77z" />
    <glyph glyph-name="uniE64B" unicode="&#xe64b;" 
d="M913 371q43 -50 1 -96l-297 -299q-10 -7 -21 -10.5t-22.5 -2.5t-21.5 5t-17 10q-107 108 -192 193l-71 72q-36 35 -63 63t-45 45l-18 18q-2 2 -6 8.5t-9 16.5t-9 22.5t-4 26.5v17q0 14 0.5 34t1 44t0.5 49q1 59 2 130q2 11 4.5 22.5t12.5 22.5q9 9 21 12.5t22 3.5h292
q2 1 13.5 0.5t13.5 -2.5q6 -2 13.5 -6.5t11.5 -9.5zM259 582q25 0 42 17.5t17 42.5t-17 42t-42 17t-43 -17t-18 -42t18 -42.5t43 -17.5z" />
    <glyph glyph-name="uniE64C" unicode="&#xe64c;" 
d="M856 685q41 -1 61 -22.5t20 -56.5v-40q0 -34 -0.5 -82.5t-0.5 -104.5t-0.5 -105t-0.5 -85v-42q0 -31 -17.5 -51.5t-43.5 -20.5h-736q-30 1 -53 22.5t-23 56.5v451q0 15 5 29.5t15 26t24.5 18.5t33.5 7h481q62 0 111.5 -0.5t82.5 -0.5h41zM814 595h-651l1 -424l649 1z
M877.5 417q-14.5 0 -25 -10.5t-10.5 -24.5t10.5 -24t25 -10t25 10t10.5 24t-10.5 24.5t-25 10.5z" />
    <glyph glyph-name="uniE64D" unicode="&#xe64d;" 
d="M639 -30q-85 -28 -170.5 -20.5t-159 45t-130.5 101t-84.5 148.5t-20 170t45 159.5t101.5 131t149 84.5t170 20t159 -45.5t130.5 -101.5t84.5 -148.5t20 -170t-45 -159t-101 -130.5t-149 -84zM836 489.5q-23 68.5 -68.5 120.5t-105 82t-129 36.5t-138 -16.5t-120.5 -69
t-82 -105.5t-36.5 -128.5t16.5 -137.5t68.5 -120.5t105.5 -82t129 -36t138 17t120.5 68.5t81.5 105t36.5 128.5t-16.5 137.5zM602.5 80q-61.5 -20 -123.5 -14.5t-116.5 32.5t-96 73.5t-61.5 108.5t-14.5 124.5t32.5 117t74 95.5t109 61t124 14.5t116.5 -32.5t96 -74
t61.5 -108.5t14.5 -124t-32.5 -116.5t-74.5 -95.5t-109 -61.5zM504.5 437q-24.5 0 -41.5 -16.5t-17 -41t17 -42t41.5 -17.5t41.5 17.5t17 42t-17 41t-41.5 16.5zM283 533l136 -78q4 2 9 6q5 3 9 7t9 7q12 6 22 9q6 2 12 3v156q-17 -1 -34 -5q-15 -3 -34 -9.5t-41 -18.5
q-25 -14 -41.5 -28t-27.5 -25q-11 -12 -19 -24zM260 267l136 78q-2 6 -3 11t-1.5 11t-0.5 11q0 14 3 24q1 6 3 12l-135 78q-6 -14 -12 -31q-5 -14 -9 -34.5t-4 -45.5q-1 -28 2.5 -49.5t8.5 -36.5q5 -17 12 -28zM479 113l1 158q-6 1 -12 3q-10 3 -20 10q-6 3 -10.5 7
t-8.5 7.5t-8 7.5l-135 -77q9 -14 20 -27q11 -11 26 -24.5t37 -26.5q24 -15 44.5 -22.5t34.5 -11.5q17 -4 31 -4zM724 224l-135 78q-5 -4 -8 -7q-4 -3 -9 -6.5t-10 -6.5q-5 -4 -11.5 -6t-10.5 -3q-6 -2 -11 -3v-157q15 1 33 5q15 3 34.5 9.5t41.5 19.5q25 13 41 27t26 25
q12 13 19 25zM748 492l-135 -78l2 -12q1 -5 1.5 -11t0.5 -11q0 -6 -1 -13t-2 -12q-2 -5 -3 -11l134 -77q7 13 13 30q5 15 9 35.5t4 44.5q0 28 -3.5 50t-7.5 36q-5 17 -12 29zM530 645v-157l12 -4q4 -2 9.5 -4.5t10.5 -4.5q4 -4 9.5 -7.5t9.5 -7.5l8 -8l135 78q-9 12 -20 26
q-11 11 -26 25t-37 27q-25 14 -45.5 21.5t-34.5 10.5q-18 4 -31 5z" />
    <glyph glyph-name="uniE64E" unicode="&#xe64e;" 
d="M683 776q18 32 29 47t17.5 20t17 2t16.5 -15.5t5 -34.5t-7 -63q-3 -20 -14 -46t-24.5 -51t-26.5 -46.5t-20 -32.5q-8 -11 -23 -32l-31 -41q-19 -23 -38 -49q11 -18 22 -35q10 -14 18.5 -28t13.5 -22q17 -26 48 -52t62 -41q15 -8 45 -17.5t58.5 -28.5t49.5 -52t18 -89
q-2 -45 -20.5 -77.5t-46 -52.5t-62 -27.5t-68 -3t-63 22t-47.5 47.5q-19 29 -25.5 57t-6.5 57t4.5 58.5t9.5 60.5q3 17 2.5 29t-3 20.5t-6.5 14.5l-8 13q-4 6 -12.5 17.5t-16.5 23.5q-10 13 -21 27l-17 -22q-8 -10 -16.5 -22.5t-17.5 -23.5q-17 -24 -18.5 -39t3.5 -35
q3 -10 7.5 -37t3 -62.5t-12 -74.5t-39.5 -74q-24 -29 -56 -43.5t-64 -15.5t-63.5 10t-56 31.5t-40 50.5t-16.5 66q-2 54 18.5 89t50.5 57.5t62 35.5t55 21q21 8 36 16t25.5 15.5t18 16t15.5 17.5t19 25l22 32q12 19 25 40q-8 11 -19 26q-9 12 -23 29t-30 37q-17 22 -34.5 51
t-32 57.5t-26 53.5t-15.5 36t-8 29t-5 35.5t2 32t12 21.5q9 5 16 4.5t12 -5t9.5 -12.5t11.5 -18q3 -5 13 -20t23.5 -36t30.5 -46l33 -52q39 -60 87 -135q36 62 67 114l27 45q13 22 25 41.5t20.5 34.5t13.5 23zM296 161q-38 0 -64 -26t-26 -63t26 -63.5t64 -26.5
q37 0 63 26.5t26 63.5t-26 63t-63 26zM752 161q-37 0 -63.5 -26t-26.5 -63q0 -19 7 -35.5t19.5 -28.5t28.5 -19t35 -7q37 0 63 26.5t26 63.5t-26 63t-63 26z" />
    <glyph glyph-name="uniE64F" unicode="&#xe64f;" 
d="M672 21q0 -11 -7 -20.5t-19 -9.5l-244 1q-11 -1 -17.5 9.5t-6.5 19.5q0 8 6 18.5t18 10.5h76v64h-341q-34 0 -55 19t-21 52v509q0 33 20 49t53 16h756q33 0 52.5 -17.5t19.5 -47.5v-509q0 -32 -18 -50t-54 -18h-319v-68h74q11 0 19 -9t8 -19zM891 647h-768v-360h768v360z
M566 244h-87v-77h87v77z" />
    <glyph glyph-name="uniE650" unicode="&#xe650;" 
d="M678 316q0 -29 -11 -54t-29 -43.5t-43 -29t-53.5 -10.5t-53 10.5t-43 29t-29 43.5t-10.5 54q0 28 10.5 53t29 43.5t43 29t53 10.5t53.5 -10.5t43 -29t29 -43.5t11 -53zM171 44q-29 0 -51.5 5t-37.5 17.5t-23.5 33t-8.5 52.5v346q0 58 27 80.5t86 22.5h172q16 0 27 6
t17.5 16.5t11.5 24t11 27.5q11 27 36.5 46.5t58.5 19.5h95q38 0 62 -21t32 -45q11 -30 29.5 -52t39.5 -22h130q45 1 71.5 -24.5t26.5 -75.5v-351q0 -52 -27.5 -79t-73.5 -27h-711zM540 530q-45 0 -84 -17t-68 -46t-45.5 -68t-16.5 -83q0 -45 16.5 -84t45.5 -67.5t68 -45.5
t84 -17q44 0 83 17t67.5 45.5t45.5 67.5t17 84q0 44 -17 83t-45.5 68t-67.5 46t-83 17zM611 641q0 16 -1.5 25.5t-20.5 9.5h-85q-20 1 -21.5 -8.5t-1.5 -26.5q-1 -20 2 -28t21 -8h85q19 0 20.5 9t1.5 27z" />
    <glyph glyph-name="uniE651" unicode="&#xe651;" 
d="M208 129q0 -40 -23 -59.5t-56 -19.5q-36 0 -58 19t-22 64v393q-1 33 22 52.5t58 19.5q37 0 58 -22t21 -52v-395zM265 56l-1 538h129q17 0 28.5 8.5t20.5 22.5t15 30t12 30q10 25 25.5 42.5t47.5 17.5h107q19 0 31 -5t21 -14t15 -21t11 -24q6 -14 11.5 -29t12.5 -27.5
t15.5 -20.5t20.5 -8h86q53 -1 79.5 -29.5t26.5 -80.5v-326q0 -54 -25.5 -79t-74.5 -25h-614zM598 503q-40 0 -74.5 -15t-60 -40.5t-40 -60.5t-14.5 -74q0 -40 14.5 -74t40 -59.5t60 -40.5t74.5 -15q39 0 74 15t60.5 40.5t40 59.5t14.5 74q0 39 -14.5 74t-40 60.5t-60.5 40.5
t-74 15zM715 314.5q0 -24.5 -9.5 -45.5t-25 -37t-36.5 -25t-46 -9t-46.5 9t-37 25t-25 37t-9.5 45.5t9.5 45.5t25 37t37 25t46.5 9t46 -9t36.5 -25t25 -37t9.5 -45.5z" />
    <glyph glyph-name="uniE652" unicode="&#xe652;" 
d="M302 536q-26 -1 -51 -1h-80q-17 0 -35 -6t-31 -18t-22 -30.5t-9 -43.5v-73h876v39q0 16 -0.5 29.5t-0.5 17.5q0 12 -5 27.5t-16.5 28.5t-30 21.5t-47.5 8.5h-128v-93h-420v93zM949 312v-50q0 -22 0.5 -49.5t0.5 -55.5t-10 -46t-25 -29t-32 -15t-30 -4q-14 -1 -28.5 -0.5
t-28.5 0.5h-31l-43 123h-421l-42 -123h-61q-19 0 -43 1q-24 0 -39.5 9t-24.5 22t-13 28.5t-4 28.5v160h875zM188 252q-11 0 -19.5 -8.5t-8.5 -20.5t8.5 -20.5t19.5 -8.5q13 0 21.5 8.5t8.5 20.5t-8.5 20.5t-21.5 8.5zM335 133q-7 -25 -13 -46q-5 -19 -10 -36t-7 -24
t-3 -14.5t1 -13.5t9 -10t20 -4h351q22 0 32.5 11.5t1.5 36.5q-4 12 -8.5 29t-9.5 33l-10 38h-354zM355 493v219q0 10 2 21.5t9.5 20.5t20 15t32.5 6h180q30 0 49.5 -14t19.5 -50v-218h-313z" />
    <glyph glyph-name="uniE653" unicode="&#xe653;" horiz-adv-x="1027" 
d="M702 607q54 0 101.5 -20.5t83 -56t56.5 -83t21 -102.5q0 -68 -31 -125t-83 -92q-8 27 -26 51q2 2 3 2.5t2 2.5q7 10 7.5 16t-13 9.5t-19.5 4t-12 -7.5q-7 5 -16 9t-17 8q2 2 3 6t-1 15q-1 13 4 18.5t8 9.5q2 2 -1 5.5t-7.5 7.5t-8 8.5t-3.5 9.5q6 17 -3 18t-33 1
q-11 0 -17 -1.5t-16 0.5q-8 1 -12 2.5t-8 4t-9.5 4t-16.5 1.5q-15 1 -21.5 2t-9 2t-4.5 1.5t-7 0.5q-1 0 -2 -0.5t-2 -0.5q15 20 27.5 39.5t22.5 37.5q4 -4 8 -4h12q7 0 14.5 -1.5t16.5 -7.5q14 -3 25 -7q10 -3 21.5 -7t18.5 -8q8 -5 6.5 -13.5t-5.5 -17t-6.5 -16t3.5 -11.5
q8 -7 12 -8t8.5 -1t12.5 2t24 2q-5 0 -1 3l8 9q5 5 12 10t11.5 8.5t14 6t19 5.5t16.5 8.5t8 15.5q1 20 -4 35.5t-20 38.5q-8 13 -14 21t-12.5 14.5t-12.5 11t-15 9.5l-18 11q-9 5 -19 7t-22 -2t-27 -19q-3 -4 -9 -10t-13 -11.5t-13 -9t-11 -3.5q-3 0 -9 -0.5t-13 -2.5
q16 46 14 78t-12 56h15h16zM600 233q22 -9 48.5 -16t51 -16.5t43.5 -23.5t27 -37q4 -14 6.5 -34.5t2.5 -42t-3 -40.5t-10 -28q-4 -6 -25 -13.5t-51.5 -14t-68 -12.5t-75 -10.5t-72.5 -6.5t-61 -2t-60 2.5t-69 6.5t-69.5 9.5t-63 11t-48 11t-25.5 9.5q-9 7 -14 44t3 95
q6 32 27.5 48.5t50.5 27t60 18.5t55 23q18 12 28 22.5t14 21t4 22.5t-1 25q-2 21 -14 32.5t-26 24.5q-7 6 -13 17t-10 22q-5 13 -9 28q-6 2 -13 7q-5 4 -11 12t-10.5 23.5t-3 28t4.5 21.5q4 10 11 19q0 34 4 67q3 29 12 61t28 58q17 24 38 40t42.5 25t43.5 12t42 3
q26 0 49.5 -6t44 -15.5t36.5 -22.5t26 -25q23 -29 34 -62.5t16 -64.5q5 -36 4 -71q6 -5 9 -12q4 -6 6 -16t0 -24q-1 -19 -7.5 -30.5t-12.5 -17.5q-8 -7 -16 -10q-5 -15 -9 -28q-5 -10 -11 -21.5t-13 -16.5q-8 -7 -14.5 -12t-12 -11t-9 -13t-5.5 -18q-3 -14 -2.5 -28
t7.5 -27.5t20.5 -26.5t38.5 -23v1zM482 42q0 5 -3 20.5t-6 33t-6.5 33.5t-5.5 23q10 9 21 27q2 6 -2.5 13t-12.5 14t-18 15h-44q-10 -8 -18 -15q-6 -7 -10.5 -14t-1.5 -12q9 -17 16 -26q-2 -5 -5.5 -20t-8 -32.5t-7.5 -33.5t-3 -24q0 -5 7.5 -13.5t18 -16.5t20.5 -14.5
t14.5 -6.5t13.5 6t18 14t16 16t7 13z" />
    <glyph glyph-name="uniE654" unicode="&#xe654;" 
d="M802 404q32 0 60.5 -12t50 -33.5t33.5 -50t12 -60.5q0 -33 -12 -61t-33.5 -49.5t-50 -34t-60.5 -12.5q-30 0 -56 11t-47 28v-128q0 -28 -19.5 -47.5t-46.5 -19.5h-505q-28 0 -48 19.5t-20 47.5v114q6 21 19 31.5t39 -5.5q12 -7 18 -8q27 -13 54.5 -13t51.5 10t42 28
t28.5 41.5t10.5 51.5t-10.5 52t-28.5 42t-42 28t-52 10q-26 0 -52 -11q-6 -2 -10 -4q-12 -7 -24 -12t-21 -4t-15.5 10.5t-7.5 30.5v108q0 27 20 47t48 20h160q-17 21 -26.5 46t-9.5 54q0 33 13 62.5t34.5 51t50.5 34t61.5 12.5t62 -12.5t51 -34t34 -51t12.5 -62.5
q0 -58 -35 -100h97q27 0 46.5 -20t19.5 -47v-136q21 17 47 27.5t56 10.5z" />
    <glyph glyph-name="uniE655" unicode="&#xe655;" 
d="M617 612q0 -53 -19 -100.5t-50.5 -83t-73.5 -56t-88 -20.5t-87.5 19.5t-73.5 55t-51 84.5t-19 107q0 47 18.5 88.5t49.5 72.5t72.5 50t87.5 19t88 -19.5t74.5 -52.5t52 -75.5t19.5 -88.5zM345 281l-1 -363l38 48l39 -48v363h-76zM590 799q21 -26 39 -55q14 -25 26 -58
t11 -69q-1 -62 -12.5 -104t-25.5 -68q-18 -30 -38 -48q29 3 59 10q26 5 55.5 13.5t56.5 21.5q23 13 44 33t36 47.5t21 62.5t0 77q-6 43 -35.5 76.5t-70.5 53.5t-86 23t-80 -16zM591 340l-1 -346l35 46l38 -46v346h-72z" />
    <glyph glyph-name="uniE656" unicode="&#xe656;" 
d="M512 833q93 0 174.5 -35.5t142.5 -96t96.5 -142.5t35.5 -174q0 -93 -35.5 -174.5t-96.5 -142.5t-142.5 -96t-174.5 -35q-92 0 -174 35t-142.5 96t-95.5 142.5t-35 174.5q0 92 35 174t95.5 142.5t142.5 96t174 35.5zM675 610q-30 0 -51 -24.5t-21 -60.5q0 -35 21 -59.5
t51 -24.5t50 24.5t20 59.5q0 36 -20 60.5t-50 24.5zM343 608q-29 0 -49.5 -24.5t-20.5 -59.5q0 -36 20.5 -60.5t49.5 -24.5t49 24.5t20 60.5q0 35 -20 59.5t-49 24.5zM766 257q1 2 1 7t-1.5 11.5t-6 11.5t-13.5 8q-23 -29 -58 -51q-30 -20 -75.5 -35.5t-107 -15.5
t-104.5 15.5t-72 35.5q-34 22 -58 51q-8 -2 -12 -7t-6 -11.5t-2 -11.5t1 -8q1 -1 0.5 -1.5t0.5 -1.5q9 -28 32.5 -52t57.5 -42t76.5 -27.5t89.5 -9.5q93 0 160.5 33.5t92.5 89.5q0 2 1 4t3 7z" />
    <glyph glyph-name="uniE657" unicode="&#xe657;" 
d="M513 833q92 0 174 -35.5t142.5 -96t96 -142.5t35.5 -174q0 -93 -35.5 -174.5t-96 -142.5t-142.5 -96t-174 -35q-93 0 -174.5 35t-142.5 96t-96 142.5t-35 174.5q0 92 35 174t96 142.5t142.5 96t174.5 35.5zM274 524q0 -36 20 -60.5t49 -24.5t49.5 24.5t20.5 60.5
q0 35 -20.5 59.5t-49.5 24.5t-49 -24.5t-20 -59.5zM511 55q28 0 52 11t42 29t28.5 42.5t10.5 52t-10.5 51.5t-28.5 42t-42 29t-52 11t-52 -11t-42.5 -29t-28.5 -42t-10 -51.5t10 -52t28.5 -42.5t42.5 -29t52 -11zM675 441q30 0 50.5 24.5t20.5 59.5q0 36 -20.5 60.5
t-50.5 24.5t-50.5 -24.5t-20.5 -60.5q0 -35 20.5 -59.5t50.5 -24.5z" />
    <glyph glyph-name="uniE658" unicode="&#xe658;" 
d="M513 830q93 0 174.5 -35t142 -95.5t96 -142.5t35.5 -174q0 -93 -35.5 -174.5t-96 -142.5t-142 -96.5t-174.5 -35.5t-174.5 35.5t-142.5 96.5t-96 142.5t-35 174.5q0 92 35 174t96 142.5t142.5 95.5t174.5 35zM274 522q0 -36 20 -60.5t49 -24.5q30 0 50 24.5t20 60.5
q0 35 -20 59.5t-50 24.5q-29 0 -49 -24.5t-20 -59.5zM639 190h-256v-63h256v63zM675 439q30 0 50.5 24.5t20.5 59.5q0 36 -20.5 60.5t-50.5 24.5t-50.5 -24.5t-20.5 -60.5q0 -35 20.5 -59.5t50.5 -24.5z" />
    <glyph glyph-name="uniE659" unicode="&#xe659;" 
d="M513 834q92 0 174 -35.5t142.5 -96.5t96 -142.5t35.5 -174.5q0 -92 -35.5 -174t-96 -142.5t-142.5 -95.5t-174 -35q-93 0 -174.5 35t-142.5 95.5t-96 142.5t-35 174q0 93 35 174.5t96 142.5t142.5 96.5t174.5 35.5zM766 257q1 3 1 8t-1.5 11t-6 11t-13.5 8
q-23 -29 -58 -51q-30 -20 -75.5 -35.5t-106.5 -15.5t-104.5 15.5t-72.5 35.5q-34 22 -58 51q-15 -3 -18 -17.5t-1 -20.5q1 -1 1 -2q9 -28 32.5 -52t57.5 -42t76.5 -27.5t89.5 -9.5q93 0 160.5 33.5t92.5 89.5q0 1 1 3t3 7zM660.5 386q31.5 0 70 19t73.5 42q40 27 81 63
l-18 70h-681l-26 -74q36 -32 70 -57q30 -22 64 -39.5t60.5 -17.5t45 10t35 21t34 21t42.5 10t39.5 -11t28.5 -23t32 -23t49.5 -11z" />
    <glyph glyph-name="uniE65A" unicode="&#xe65a;" 
d="M967 822q25 -58 33 -110q4 -23 4 -46.5t-6 -45t-19 -40.5t-36 -31q-2 -2 -5 -2.5t-5 -2.5q14 -37 21.5 -77t7.5 -82q0 -93 -35.5 -174.5t-96 -142.5t-142.5 -96t-174 -35q-93 0 -174.5 35t-142.5 96t-96 142.5t-35 174.5q0 82 28 157l-7 4l-7 3q-24 12 -36.5 31t-19 40.5
t-6 45t4.5 46.5q8 52 33 110q12 -35 26 -68q12 -29 29.5 -58.5t38.5 -49.5q61 86 155.5 136.5t208.5 50.5q55 0 107.5 -13.5t98.5 -37.5t85.5 -58t70.5 -76q20 21 36.5 50t28.5 57q14 32 26 67zM249 622q13 -43 29 -79q13 -31 29.5 -60t33.5 -38t36.5 -1t36.5 21
q18 15 38 39zM767 257q1 2 1 7t-1.5 11.5t-6 11.5t-12.5 8q-24 -29 -59 -51q-30 -20 -75.5 -35.5t-106.5 -15.5t-104.5 15.5t-72.5 35.5q-34 22 -58 51q-8 -2 -12 -7t-6 -11.5t-2 -11.5t1 -8q1 -1 1 -3q9 -28 32.5 -52t57.5 -42t76.5 -27.5t89.5 -9.5q93 0 160.5 33.5
t92.5 89.5q0 2 1 4t3 7zM682 445q17 9 33.5 38t29.5 60q16 36 29 79l-203 -118q20 -24 38 -39q17 -13 36.5 -21t36.5 1z" />
    <glyph glyph-name="uniE65B" unicode="&#xe65b;" 
d="M512 833q93 0 174.5 -35.5t142.5 -96t96.5 -142.5t35.5 -174q0 -93 -35.5 -174.5t-96.5 -142.5t-142.5 -96t-174.5 -35q-92 0 -174 35t-142.5 96t-95.5 142.5t-35 174.5q0 92 35 174t95.5 142.5t142.5 96t174 35.5zM446 578h-192v-65h192v65zM639 450h-65v-128h65v128z
M767 450h-65v-128h65v128zM767 578h-193v-65h193v65zM895 322v256h-65v-256h65z" />
    <glyph glyph-name="uniE65C" unicode="&#xe65c;" 
d="M512 833q92 0 174 -35.5t142.5 -96.5t95.5 -142.5t35 -174.5q0 -92 -35 -174t-95.5 -142.5t-142.5 -95.5t-174 -35q-93 0 -174.5 35t-142.5 95.5t-96.5 142.5t-35.5 174q0 93 35.5 174.5t96.5 142.5t142.5 96.5t174.5 35.5zM253 513h192v65h-192v-65zM558 206
q-11 6 -33 12.5t-42 16t-31.5 22.5t0.5 34q14 26 33.5 32t37.5 2q22 -4 44 -19l29 59q-39 20 -77 25q-33 4 -68 -6.5t-62 -52.5q-10 -17 -12.5 -31t0.5 -26.5t9.5 -23t14.5 -20.5q20 -20 53 -35q-22 2 -39 -6q-15 -6 -27.5 -23.5t-13.5 -52.5q-1 -27 7 -46.5t21.5 -33.5
t31 -22.5t35.5 -12.5q43 -11 98 -6v60q-36 1 -62 5q-24 4 -42 12.5t-16 24.5q4 22 15 31t26 11t32 0.5t32 -2.5t22 8.5t7 21.5t-6.5 24t-16.5 18zM766 578h-193v-65h193v65z" />
    <glyph glyph-name="uniE65D" unicode="&#xe65d;" 
d="M968 821q25 -58 33 -110q4 -23 4 -46t-6 -44.5t-19 -40.5t-36 -31q-2 -2 -5 -3t-5 -3q14 -37 21.5 -76.5t7.5 -82.5q0 -92 -35.5 -174t-96.5 -142.5t-142.5 -95.5t-174.5 -35q-92 0 -174 35t-142.5 95.5t-95.5 142.5t-35 174q0 42 7 81.5t21 76.5q-7 3 -14 7
q-24 12 -36.5 31t-19 40.5t-6 44.5t4.5 46q8 52 33 110q12 -36 26 -68q12 -29 29.5 -58t38.5 -49q61 85 155.5 136t207.5 51t207 -50.5t156 -134.5q20 20 36.5 49.5t28.5 57.5q14 32 26 66zM250 622q13 -44 29 -80q13 -31 29.5 -59.5t33.5 -38t36.5 -1t36.5 21.5
q18 15 38 38zM752 84q8 3 12.5 8t6 11.5t1.5 11.5t-1 8q-2 5 -3 7t-1 4q-25 56 -93 91t-162 35q-47 0 -89.5 -10t-76.5 -28t-58 -43t-33 -54q0 -1 -1 -2q-2 -6 1 -21t18 -18q24 29 58 52q29 21 73.5 37t105.5 16t107 -16t75 -37q35 -23 60 -52zM683 444.5q17 9.5 33.5 38
t29.5 59.5q16 36 29 80l-203 -119q20 -23 38 -38q17 -13 36.5 -21.5t36.5 1z" />
    <glyph glyph-name="uniE65E" unicode="&#xe65e;" 
d="M512 833q93 0 174.5 -35.5t142.5 -96t96.5 -142.5t35.5 -174q0 -93 -35.5 -174.5t-96.5 -142.5t-142.5 -96t-174.5 -35q-92 0 -174 35t-142.5 96t-95.5 142.5t-35 174.5q0 92 35 174t95.5 142.5t142.5 96t174 35.5zM671 643q-35 0 -59 -28.5t-24 -69.5q0 -42 24 -71
t59 -29t59 29t24 71q0 41 -24 69.5t-59 28.5zM254 450h192v63h-192v-63zM766 257q1 2 1 7t-1.5 11.5t-6 11.5t-13.5 8q-23 -29 -58 -51q-30 -20 -75.5 -35.5t-107 -15.5t-104.5 15.5t-72 35.5q-34 22 -58 51q-8 -2 -12 -7t-6 -11.5t-2 -11.5t1 -8q1 -1 0.5 -1.5t0.5 -1.5
q9 -28 32.5 -52t57.5 -42t76.5 -27.5t89.5 -9.5q93 0 160.5 33.5t92.5 89.5q0 2 1 4t3 7z" />
    <glyph glyph-name="uniE65F" unicode="&#xe65f;" 
d="M512 833q93 0 174.5 -35.5t142.5 -96t96.5 -142.5t35.5 -174q0 -93 -35.5 -174.5t-96.5 -142.5t-142.5 -96t-174.5 -35q-92 0 -174 35t-142.5 96t-95.5 142.5t-35 174.5q0 92 35 174t95.5 142.5t142.5 96t174 35.5zM248 622q13 -43 28 -79q14 -31 30.5 -60t33.5 -38
t36.5 -1t36.5 21q18 15 38 39zM750 84q8 3 12.5 8t6 11.5t1.5 12t-1 7.5q-2 8 -5 11q-12 29 -35.5 52t-56.5 40t-74 26t-88 9t-89.5 -10t-76.5 -28.5t-58 -43t-33 -53.5q-1 -1 -1 -3q-2 -6 1 -20.5t18 -18.5q24 30 58 53q29 21 73 37t105.5 16t107 -16t75.5 -37
q35 -23 60 -53zM681 445q17 9 33.5 38t29.5 60q16 36 29 79l-203 -118q20 -24 38 -39q17 -13 36.5 -21t36.5 1z" />
    <glyph glyph-name="uniE660" unicode="&#xe660;" 
d="M512 833q93 0 174.5 -35.5t142.5 -96t96.5 -142.5t35.5 -174q0 -93 -35.5 -174.5t-96.5 -142.5t-142.5 -96t-174.5 -35q-92 0 -174 35t-142.5 96t-95.5 142.5t-35 174.5q0 92 35 174t95.5 142.5t142.5 96t174 35.5zM340 445q17 -9 36.5 -1t36.5 21q18 15 38 39l-203 118
q13 -43 28 -79q14 -31 30.5 -60t33.5 -38zM510 55q28 0 52 11t42.5 29t28.5 42.5t10 52t-10 51.5t-28.5 42t-42.5 29t-52 11t-52 -11t-42 -29t-28.5 -42t-10.5 -51.5t10.5 -52t28.5 -42.5t42 -29t52 -11zM681 445q17 9 33.5 38t29.5 60q16 36 29 79l-203 -118q20 -24 38 -39
q17 -13 36.5 -21t36.5 1z" />
    <glyph glyph-name="uniE661" unicode="&#xe661;" 
d="M511 834q93 0 174.5 -35.5t142.5 -96t96 -142.5t35 -174q0 -93 -35 -174.5t-96 -142.5t-142.5 -96t-174.5 -35q-92 0 -174 35t-142.5 96t-96 142.5t-35.5 174.5q0 92 35.5 174t96 142.5t142.5 96t174 35.5zM253 514h68q3 -29 10.5 -47t17.5 -18t18 18t11 47h67v65h-192
v-65zM701 194h-384v-64h384v64zM766 579h-193v-65h68q3 -29 10.5 -47t18 -18t18 18t10.5 47h68v65z" />
    <glyph glyph-name="uniE662" unicode="&#xe662;" 
d="M508 177q0 -2 -2 -10q0 7 1 10q0 2 1 4v-4zM971 793q-3 -29 -15 -59q-9 -25 -27.5 -55.5t-49.5 -57.5q39 -56 61 -121.5t22 -138.5q0 -93 -35.5 -174.5t-96 -142t-142.5 -96t-174 -35.5q-93 0 -174.5 35.5t-142.5 96t-96 142t-35 174.5q0 72 21 137t59 120
q-32 28 -51 58.5t-28 56.5q-12 30 -15 60q54 16 104 20q20 1 42 0t42 -7t37.5 -17.5t29.5 -29.5q94 50 207 50q53 0 103 -12t95 -34q10 15 27 25t37 15t42.5 6t43.5 0q50 -3 109 -16zM255 489h192v65h-192v-65zM605 105q45 0 66 13t28.5 31.5t5.5 38.5t-2 35.5t-9 21
t-19.5 5t-19.5 -7t-9 -17.5q0 -20 -7 -38t-25 -18q-7 0 -17 7.5t-20.5 20.5t-19 29.5t-12.5 33.5q15 7 25 19.5t10 28.5q0 23 -19.5 38.5t-47.5 15.5q-29 0 -48.5 -15.5t-19.5 -38.5q0 -14 8 -25.5t20 -19.5q0 -18 -2.5 -35t-8.5 -29.5t-17 -20t-29 -7.5q-21 0 -29 3
t-10 9.5t0 16t2 21.5t-10.5 18.5t-22.5 6.5t-22.5 -8t-10.5 -23q0 -32 11 -56q8 -21 28 -38.5t58 -17.5q26 0 44 7t29 16.5t16 21t7 19.5q0 -8 3 -19t14 -20t30 -16t52 -7zM768 554h-193v-65h193v65z" />
    <glyph glyph-name="uniE663" unicode="&#xe663;" 
d="M511 831q93 0 174.5 -35t142.5 -95.5t96 -142.5t35 -174q0 -93 -35 -174.5t-96 -142.5t-142.5 -96.5t-174.5 -35.5q-92 0 -174 35.5t-142.5 96.5t-96 142.5t-35.5 174.5q0 92 35.5 174t96 142.5t142.5 95.5t174 35zM349 445q42 0 71.5 29t29.5 71t-29.5 70.5t-71.5 28.5
q-20 0 -38 -7.5t-32 -21t-21.5 -32t-7.5 -39t7.5 -39t21.5 -31.5t32 -21t38 -8zM670 445q42 0 71 29t29 71t-29 70.5t-71 28.5q-21 0 -39 -7.5t-31.5 -21t-21.5 -32t-8 -39t8 -39t21.5 -31.5t31.5 -21t39 -8zM350 591q20 0 33 -13.5t13 -33t-13 -33t-33 -13.5t-33.5 13.5
t-13.5 33t13.5 33t33.5 13.5zM671 596q20 0 35.5 -15t15.5 -36.5t-15.5 -36t-35.5 -14.5q-22 0 -37.5 14.5t-15.5 36t15.5 36.5t37.5 15z" />
    <glyph glyph-name="uniE664" unicode="&#xe664;" 
d="M511 831q93 0 174.5 -35t142.5 -95.5t96 -142.5t35 -174q0 -93 -35 -174.5t-96 -142.5t-142.5 -96.5t-174.5 -35.5q-92 0 -174 35.5t-142.5 96.5t-96 142.5t-35.5 174.5q0 92 35.5 174t96 142.5t142.5 95.5t174 35zM394 545l91 90l-46 46l-90 -91l-91 91l-45 -46l91 -90
l-91 -91l45 -45l91 90l90 -90l46 45zM715 545l91 90l-46 46l-90 -91l-91 91l-45 -46l91 -90l-91 -91l45 -45l91 90l90 -90l46 45z" />
    <glyph glyph-name="uniE665" unicode="&#xe665;" 
d="M904 87q27 -30 29 -53t-18 -46q-23 -25 -51 -24t-53 23l-162 155q-43 -28 -92.5 -43t-104.5 -15q-74 0 -139.5 28t-114.5 77t-77.5 114.5t-28.5 140t28.5 140t77.5 114.5t114.5 77.5t140 28.5t140 -28.5t114.5 -77.5t77 -114.5t28 -139.5q0 -57 -16 -108t-46 -94l32 -32
q23 -23 48.5 -48t46.5 -47t27 -28zM456 204q50 0 94.5 18.5t77 51t51 77t18.5 94t-18.5 94t-51 77t-77 51t-94.5 18.5t-94 -18.5t-76.5 -51t-51.5 -77t-19 -94t19 -94t51.5 -77t76.5 -51t94 -18.5z" />
    <glyph glyph-name="uniE666" unicode="&#xe666;" 
d="M683 226q32 0 59 -12t47 -32.5t32 -48t12 -59t-12 -59t-32 -47.5t-47 -32t-59 -12t-59 12t-47.5 32t-32.5 47.5t-12 59.5q0 9 1 17t3 17l-152 127q-13 -6 -28.5 -9t-31.5 -3q-32 0 -59 12t-47.5 32t-32.5 47.5t-12 59t12 58.5t32.5 47.5t47.5 32.5t59 12q35 0 68 -16
l144 134q-4 13 -4 31q0 31 12 58.5t32.5 47.5t47.5 32t59 12t59 -12t47 -32t32 -47.5t12 -59t-12 -58.5t-32 -48t-47 -32.5t-59 -11.5q-22 0 -41.5 5.5t-36.5 16.5l-136 -128q5 -22 5 -43q0 -27 -8 -50l140 -118q18 9 37 14.5t40 5.5z" />
    <glyph glyph-name="uniE667" unicode="&#xe667;" 
d="M98 650h828q15 0 25.5 10.5t10.5 25.5t-10.5 25.5t-25.5 10.5h-828q-15 0 -25.5 -10.5t-10.5 -25.5t10.5 -25.5t25.5 -10.5zM926 414h-828q-15 0 -25.5 -10.5t-10.5 -25.5t10.5 -25t25.5 -10h828q15 0 25.5 10t10.5 25t-10.5 25.5t-25.5 10.5zM926 106h-828
q-15 0 -25.5 -10.5t-10.5 -25.5t10.5 -25t25.5 -10h828q15 0 25.5 10t10.5 25t-10.5 25.5t-25.5 10.5z" />
    <glyph glyph-name="uniE668" unicode="&#xe668;" 
d="M512 831q92 0 174 -35t142.5 -95.5t95.5 -142.5t35 -174q0 -93 -35 -174.5t-95.5 -142.5t-142.5 -95.5t-174 -34.5q-93 0 -174.5 34.5t-142.5 95.5t-96.5 142.5t-35.5 174.5q0 92 35.5 174t96.5 142.5t142.5 95.5t174.5 35zM673.5 609q-29.5 0 -50 -24.5t-20.5 -59.5
q0 -36 20.5 -60.5t50 -24.5t50 24.5t20.5 60.5q0 35 -20.5 59.5t-50 24.5zM342 607q-29 0 -49 -24.5t-20 -59.5q0 -36 20 -60t49 -24t49.5 24t20.5 60q0 35 -20.5 59.5t-49.5 24.5zM516 51q54 0 103 19.5t87.5 53.5t66 79t38.5 96v5q0 8 -6 15t-15 7h-548q-10 0 -17.5 -7
t-5.5 -15q2 -10 3 -14t2 -6q14 -50 41.5 -92t65 -73.5t84.5 -49.5t101 -18z" />
    <glyph glyph-name="uniE669" unicode="&#xe669;" horiz-adv-x="1086" 
d="M993 543q39 -54 58.5 -114t27 -118t7 -108t-0.5 -82q0 -6 -1 -15t-3.5 -17.5t-6 -14.5t-9.5 -6h-42q0 34 -11 59t-28.5 40t-41.5 22.5t-51 7.5t-49.5 -10.5t-39.5 -28t-26.5 -40.5t-9.5 -48h-18q-19 0 -32.5 13t-13.5 32v1v492q0 12 8 26.5t19 15.5q34 3 71 -2.5
t72.5 -19t67.5 -35t53 -50.5zM977 323q12 0 21.5 0.5t9.5 12.5q0 2 -0.5 3t-0.5 3q-12 50 -25 96.5t-45 79.5q-21 20 -44.5 28.5t-44.5 11t-35 1.5t-15 -1q-14 0 -23 -9.5t-9 -21.5v-93q0 -41 1 -91v-1q0 -5 7 -12t14 -7h189zM637 775l2 -666q0 -18 -12 -29t-28 -11h-280
q0 60 -30.5 95t-95.5 35q-63 0 -96.5 -32.5t-33.5 -97.5h-23q-17 0 -28.5 10t-11.5 30v532q0 25 9 48.5t26 43t39.5 31t49.5 11.5h513zM896 132q27 0 46.5 -19.5t19.5 -45.5q0 -28 -19.5 -47.5t-46.5 -19.5q-28 0 -47 19.5t-19 47.5q0 26 19 45.5t47 19.5zM191.5 133
q27.5 0 46.5 -19.5t19 -46.5t-19 -46.5t-46.5 -19.5t-46.5 19.5t-19 46.5t19 46.5t46.5 19.5z" />
    <glyph glyph-name="uniE66A" unicode="&#xe66a;" 
d="M1019 526q5 -36 -11.5 -68.5t-53.5 -53.5v-341q0 -29 -10 -53t-28 -41.5t-41 -27.5t-49 -10h-575q-28 0 -51.5 10t-41.5 27.5t-27.5 41.5t-9.5 53v341q-36 22 -53.5 54t-11.5 68l52 247q5 25 24 41.5t44 16.5h205h317h198q31 0 51 -16.5t25 -41.5zM889 375q-15 -3 -30 -3
q-33 0 -61.5 11.5t-50.5 32t-35 48.5t-14 59q-1 -31 -13 -59t-33.5 -48.5t-50.5 -32t-61.5 -11.5t-61.5 12t-50.5 33t-34 49.5t-12.5 59.5q0 -31 -13.5 -59.5t-36 -49.5t-52.5 -33t-63 -12q-15 0 -31 3v-119q0 -12 6 -24.5t15 -21.5t20.5 -15t22.5 -6h577q11 0 22 5.5
t20.5 13.5t15 20t5.5 24v123z" />
    <glyph glyph-name="uniE66B" unicode="&#xe66b;" 
d="M895 322q0 -79 -29.5 -149t-81.5 -123.5t-122 -88t-151 -41.5q-5 -1 -9 -1.5t-9 -0.5h-178q-17 0 -34 6t-30 17t-22 25.5t-9 29.5t8.5 29.5t21.5 24.5t29.5 16.5t33.5 6.5l159 -1q54 0 102.5 20t84 53.5t56 79t20.5 98.5q0 49 -18.5 92t-50.5 76.5t-75 54.5t-93 26
q-2 0 -2.5 -0.5t-2.5 -0.5h-163v-81q0 -17 -14 -25t-45 10q-8 5 -26 18t-42 30.5t-50 36.5l-52 39q-15 12 -26.5 22t-11.5 24q0 12 13 25.5t29 26.5q19 16 44.5 36.5t50.5 40t45 35t28 21.5q25 18 40.5 7.5t16.5 -30.5v-82h163q5 0 10.5 -1t10.5 -2q80 -8 149.5 -42
t121.5 -87.5t81 -123.5t29 -147z" />
    <glyph glyph-name="uniE66C" unicode="&#xe66c;" 
d="M109 324q0 77 29 147t80.5 123.5t121.5 87.5t149 42q11 3 22 3h163v82q1 20 16.5 30.5t39.5 -6.5q7 -6 27.5 -21.5t45.5 -35.5t51 -40.5t44 -36.5q16 -13 28.5 -26.5t12.5 -25.5q0 -14 -10.5 -24t-26.5 -22l-51 -39q-27 -19 -51 -36.5t-42.5 -30.5t-26.5 -17
q-15 -9 -26 -11.5t-17.5 0.5t-10 10t-3.5 16v81h-163h-5q-50 -5 -93 -26t-75.5 -54.5t-51 -76.5t-18.5 -92q0 -53 20.5 -98.5t56.5 -79t84 -53.5t102 -20l159 1q17 0 33.5 -6.5t29.5 -16.5t21 -24t8 -30q0 -15 -8 -29.5t-22 -25t-30.5 -16.5t-33.5 -6h-177h-9q-4 0 -9 1
q-81 7 -151.5 41.5t-122 88t-81 123.5t-29.5 149z" />
    <glyph glyph-name="uniE66D" unicode="&#xe66d;" 
d="M900 428q0 -15 -6.5 -29t-16.5 -24.5t-24.5 -17t-29.5 -6.5h-28q32 0 54.5 -21t22.5 -51.5t-22.5 -52.5t-54.5 -22h-29q33 0 55.5 -22.5t22.5 -52.5q0 -16 -8.5 -30t-23.5 -24t-34 -15.5t-39 -5.5q31 0 51 -22.5t20 -53.5q0 -19 -11 -33t-28 -23t-36 -13.5t-35 -4.5h-402
q-31 0 -57.5 10t-46 29t-30.5 44.5t-11 58.5v294q0 19 1.5 38t7 36t17.5 31t33 23q19 7 43.5 22.5t50.5 36.5t51 47.5t45.5 56t32.5 61t12 64.5q1 28 7.5 47.5t17.5 31.5t24 17t27 5q34 0 57.5 -21t33.5 -69q2 -41 -5 -87q-6 -40 -20.5 -87t-43.5 -93h278q32 0 54.5 -20.5
t22.5 -51.5z" />
    <glyph glyph-name="uniE66E" unicode="&#xe66e;" 
d="M908 321q0 -31 -22.5 -51.5t-54.5 -20.5h-279q30 -47 45 -94t20 -86q6 -46 5 -88q-10 -47 -33.5 -68.5t-58.5 -21.5q-13 0 -26.5 5.5t-24 17.5t-17.5 31t-8 48q0 33 -12.5 65t-32.5 61t-45 55t-51 47t-51 36.5t-44 23.5q-21 9 -32.5 23t-17.5 31.5t-7.5 36.5t-1.5 38v294
q0 33 11.5 59t31 45t46 29t57.5 10h402q16 0 35.5 -4.5t36 -13.5t28 -23.5t11.5 -33.5q0 -32 -20 -53.5t-52 -21.5q21 0 40 -6t34 -16t23.5 -23.5t8.5 -29.5q0 -32 -22.5 -54t-54.5 -22h28q32 0 55 -21.5t23 -53t-23 -52t-55 -20.5h28q16 0 30.5 -6.5t24.5 -17t16 -24.5
t6 -30z" />
    <glyph glyph-name="uniE66F" unicode="&#xe66f;" 
d="M765 449h-509v163q0 58 20 109t54.5 89.5t81 60.5t99.5 22t99.5 -22t81 -60.5t54 -89.5t19.5 -109v-163zM511 63q-52 0 -98.5 15.5t-81 44t-55 68.5t-20.5 91v70v31h509v-101q0 -41 -20 -80t-55 -70t-81 -50t-98 -19zM966 384q29 0 42.5 -7t13.5 -25q0 -22 -14 -28
t-35 -6h-18q-5 -49 -17 -98q-11 -43 -30 -91.5t-49 -91.5q-57 -79 -148 -121.5t-201 -42.5q-109 0 -195.5 34.5t-153.5 116.5q-34 41 -53.5 92t-29.5 96q-11 52 -16 105h-12q-34 1 -41.5 9.5t-7.5 28.5q0 19 16.5 24t41.5 5q26 1 46.5 0.5t32.5 0.5q22 0 33 -3t15.5 -9
t4.5 -18v-25q0 -9 -3.5 -28.5t-1.5 -48t12.5 -65.5t38.5 -82q26 -44 64 -67t77 -32.5t74 -10t58 -0.5q36 1 70 2.5t65.5 9.5t60 25t54.5 50q27 35 41 68.5t19.5 63.5t6 56t1.5 47q1 28 3.5 42t8.5 19t17 5h30h79z" />
    <glyph glyph-name="uniE670" unicode="&#xe670;" 
d="M367 146q17 0 32.5 -6.5t27 -18t18 -26.5t6.5 -32t-6.5 -32.5t-18 -27t-27 -18t-32.5 -6.5q-18 0 -33 6.5t-26.5 18t-18 27t-6.5 32.5t6.5 32t18 26.5t26.5 18t33 6.5zM741.5 144q17.5 0 33 -6.5t27 -17.5t18 -26.5t6.5 -32.5t-6.5 -32.5t-18 -26.5t-27 -18t-33 -7
t-32.5 7t-26.5 18t-18 26.5t-6.5 32.5t6.5 32.5t18 26.5t26.5 17.5t32.5 6.5zM893 655q25 0 39 -7t20 -16.5t5.5 -21t-3.5 -19.5t-11.5 -33.5t-19.5 -55.5t-21 -59.5t-16 -46.5q-11 -36 -29 -50t-44 -14h-473l14 -81h453q43 0 43 -37q0 -18 -8.5 -31t-33.5 -13h-471
q-18 0 -30.5 8t-20.5 21t-13 28.5t-8 28.5q0 6 -4.5 26.5t-10 51.5t-13 69.5t-14.5 76.5q-17 91 -39 203h-67q-14 0 -23 6.5t-14.5 16t-8 20.5t-2.5 20q0 18 12.5 29.5t32.5 11.5h91q18 0 29 -5.5t17 -13.5t9 -17l5 -15q1 -7 3 -20t4 -27q2 -16 5 -34h616z" />
    <glyph glyph-name="uniE671" unicode="&#xe671;" 
d="M896 548q0 -10 -0.5 -19t-1.5 -20q-10 -85 -38 -163t-71 -150t-99 -138.5t-122 -128.5q-9 -11 -23 -11q-16 0 -25 11q-65 62 -122 129.5t-100.5 141t-71.5 153t-36 164.5q0 9 -0.5 16t-0.5 15q0 72 28 135.5t76 110.5t113 74.5t138.5 27.5t138 -27.5t112.5 -74.5
t76.5 -110.5t28.5 -135.5zM540.5 389q33.5 0 63.5 12.5t52 34t34.5 50.5t12.5 62t-12.5 62t-34.5 50.5t-52 34.5t-63.5 13t-63 -13t-52 -34.5t-35.5 -50.5t-13 -62t13 -62t35.5 -50.5t52 -34t63 -12.5z" />
    <glyph glyph-name="uniE672" unicode="&#xe672;" 
d="M366 125q17 0 32.5 -6.5t26.5 -17.5t18 -26.5t7 -32.5t-7 -32.5t-18 -26.5t-26.5 -18t-32.5 -7q-18 0 -33 7t-26.5 18t-18 26.5t-6.5 32.5t6.5 32.5t18 26.5t26.5 17.5t33 6.5zM740.5 123q17.5 0 33 -6.5t27 -17.5t18 -26.5t6.5 -32.5t-6.5 -32.5t-18 -26.5t-27 -18
t-32.5 -7t-32.5 7t-27 18t-18 26.5t-6.5 32.5t6.5 32.5t18 26.5t26.5 17.5t32.5 6.5zM892 634q25 0 39 -6.5t20 -16.5t5.5 -21.5t-3.5 -19.5t-12 -33t-19 -55t-20.5 -60t-16.5 -47q-12 -36 -29.5 -50t-43.5 -14h-473l13 -81h454q43 0 43 -37q0 -18 -8.5 -31t-33.5 -13h-471
q-18 0 -30.5 8t-20.5 21t-13 28.5t-8 28.5q0 6 -4.5 26.5t-10 51.5t-13 69.5t-14.5 77.5q-17 90 -39 202h-67q-14 0 -23 7t-14.5 16t-8 20t-2.5 20q0 18 12.5 29.5t32.5 11.5h91q18 0 29 -5t17 -13t9 -17t5 -16q1 -7 3 -20t4 -27q3 -16 5 -34h616zM824 663h-329l119 119
q20 20 45 20.5t46 -19.5z" />
    <glyph glyph-name="uniE673" unicode="&#xe673;" horiz-adv-x="1028" 
d="M376 139q17 0 32.5 -6t26.5 -17.5t18 -27t7 -32.5t-7 -32t-18 -26.5t-26.5 -18t-32.5 -6.5q-18 0 -33.5 6.5t-26.5 18t-18 26.5t-7 32t7 32.5t18 27t26.5 17.5t33.5 6zM750 137q17 0 33 -6t27 -17.5t18 -26.5t7 -32.5t-7 -32.5t-18 -26.5t-27 -18t-33 -6.5t-32 6.5
t-26.5 18t-18 26.5t-6.5 32.5t6.5 32.5t18 26.5t26.5 17.5t32 6zM901 649q26 0 40 -7t19.5 -17t5 -21t-3 -19t-11.5 -33.5t-19.5 -55.5t-20.5 -60t-17 -47q-11 -36 -29 -50t-44 -14h-472l12 -81h455q43 0 43 -36q0 -18 -8.5 -31.5t-33.5 -13.5h-472q-18 0 -30 8.5t-20 21.5
t-13 28t-8 29q-1 5 -5 26t-10 52t-13 69t-14 77q-17 91 -39 202h-67q-14 0 -23 7t-15 16.5t-8 20t-2 19.5q0 18 12 30t33 11h91q18 0 28.5 -5.5t17 -13.5t9 -16.5t4.5 -14.5q2 -8 4 -21t3 -26q3 -16 6 -34h615zM868 568l-563 2l31 -163l471 -1z" />
    <glyph glyph-name="uniE674" unicode="&#xe674;" 
d="M564 852q43 0 58.5 -20.5t15.5 -65.5q0 -21 0.5 -65t0.5 -93.5t0.5 -96.5t0.5 -75q0 -39 7.5 -62t35.5 -22q19 0 48 -1t49 -1q36 0 46 -19t-14 -49q-25 -31 -57.5 -73t-68 -86t-69 -86.5t-59.5 -75.5q-23 -30 -45.5 -31t-45.5 28q-25 30 -57.5 70t-67 82.5t-67.5 84
t-60 73.5q-30 36 -22.5 59t44.5 23h24q14 0 29.5 0.5t30.5 1.5t26 1q27 0 33 15.5t6 42.5q0 29 -0.5 77.5t-0.5 100.5t-0.5 101t-0.5 80q0 13 2 27.5t9.5 26.5t21 19.5t37.5 7.5q27 0 52.5 0.5t57.5 0.5z" />
    <glyph glyph-name="uniE675" unicode="&#xe675;" 
d="M421 823h-55v-774q-81 106 -201 157v-62q132 -64 201 -198v-1h55v13v0v865zM658 823h-55v-878h55v774q81 -106 201 -157v62q-132 64 -201 199z" />
    <glyph glyph-name="uniE676" unicode="&#xe676;" 
d="M866 407q1 -12 1 -23q0 -96 -47.5 -178t-129.5 -129.5t-178 -47.5t-178 47.5t-129.5 129.5t-47.5 178t47.5 178t129.5 129.5t178 47.5q72 0 137 -27.5t114 -76.5l50 50q-59 59 -136.5 92t-164.5 33q-116 0 -214 -57t-155 -155t-57 -214t57 -214t155 -155t214 -57t214 57
t155 155t57 214q0 44 -9 86zM863 624l-350 -350l-184 184l-51 -50l235 -235l50 51h1v1l1 1h1l1 1v1l1 1h1l1 1v1l1 1h1l1 1v1l1 1l1 1h1v1l1 1l1 1h1l1 1v1l1 1l1 1h1l1 1v1l1 1l1 1h1l1 1v1l1 1l1 1h1l1 1l1 1v1l1 1l1 1h1l1 1l1 1v1l1 1l1 1l1 1h1l1 1l1 1v1l1 1l1 1l1 1
h1l1 1l1 1v1l1 1l1 1l1 1l1 1l1 1h1l1 1l1 1v1l1 1l1 1l1 1l1 1l1 1h1l1 1l1 1l1 1v1l1 1l1 1l1 1l1 1l1 1l1 1l1 1h1l1 1l1 1l1 1l1 1v1l1 1l1 1l1 1l1 1l1 1l1 1l1 1l1 1l1 1l1 1h1l1 1l1 1l1 1l1 1l1 1l1 1l1 1l1 1v1l1 1l1 1l1 1l1 1l1 1l1 1l1 1l1 1l1 1l1 1l1 1l1 1
l1 1l1 1l1 1l1 1l1 1l1 1l1 1l1 1l1 1l1 1l1 1l1 1l1 1h1l1 1l1 1l1 1l1 1l1 1l1 1l1 1l1 1l1 1l1 1l1 1l1 1l1 1l1 1l1 1l1 1l1 1l1 1l1 1l1 1l1 1l1 1l1 1l1 1l1 1l1 1l1 1l1 2l1 1l1 1l1 1l1 1l1 1l1 1l1 1l1 1l1 1l1 1l1 1l1 1l1 1l1 1l1 1l1 1l1 1l1 1l1 1l1 1l1 1l1 1
l1 1l1 1l1 1l1 1l1 1l1 1l1 1l1 1l1 1l1 1l1 1l1 1l1 1l1 1l2 1l1 1l1 1l1 1l1 1l1 1l1 1l1 1l1 1l1 1l1 1l1 1l1 1l1 1l1 1l1 1l1 1l1 2l1 1l1 1l1 1l1 1l1 1l1 1l1 1l1 1l1 1l1 1l1 1l1 1l1 1l1 1l1 1l1 1l1 1l1 1l1 1l1 1l1 1l1 1l1 1l1 1l1 1l1 1l1 1l1 1l1 1l1 1l1 1
l1 1l1 1l1 1l1 1l1 1l2 1l1 1l1 1l1 1l1 1l1 1l1 1l1 1l1 1l1 1l1 1l1 1l1 2l1 1l1 1l2 1l1 1l1 1l1 2l1 1l1 1l1 1l1 1l1 1l2 1l1 1l1 1l1 2l1 1l1 1l1 1l1 1l1 1l1 1l2 1l1 1l1 1l1 2l1 1l1 1l1 1l1 1l1 1l1 1l2 1l1 1l1 1l1 1l1 1l1 2l1 1l1 1l1 1l1 1l1 1l1 1l1 1l2 1
l1 1l1 1l1 1l1 1l1 1l1 2l1 1l1 1l1 1l1 1l1 1l1 1l1 1l1 1l1 1l1 1l1 1l1 1l2 1l1 1l1 1l1 1l1 1l1 1l1 1l1 1l1 1l1 1l1 1l2 2l63 63l-50 51z" />
    <glyph glyph-name="uniE677" unicode="&#xe677;" 
d="M512 713q-89 0 -165 -44t-120 -120t-44 -165t44 -165t120 -120t165 -44t165 44t120 120t44 165t-44 165t-120 120t-165 44zM512 110q-114 0 -194 80t-80 194t80 194t194 80t194 -80t80 -194t-80 -194t-194 -80z" />
    <glyph glyph-name="uniE678" unicode="&#xe678;" 
d="M967 329q0 -43 -20.5 -58.5t-65.5 -15.5h-65q-44 0 -93.5 -0.5t-96.5 -0.5h-75q-39 0 -62 -7.5t-22 -35.5q0 -21 -1 -49t-1 -49q0 -36 -19.5 -46t-50.5 14q-30 24 -72 57.5t-85.5 68.5t-86 68.5t-75.5 59.5q-31 24 -31.5 46t28.5 46q28 25 68 57t83 66.5t84.5 68
t74.5 60.5q36 29 59 22t23 -44v-25q0 -15 1 -30v-30q1 -15 1 -26q1 -26 16.5 -32.5t41.5 -6.5q30 0 78 0.5t100.5 0.5t101.5 0.5t80 0.5q13 0 27.5 -2t26 -10t19.5 -21.5t8 -36.5q0 -27 0.5 -53t0.5 -57z" />
    <glyph glyph-name="uniE679" unicode="&#xe679;" 
d="M470 -81q-44 0 -59.5 20.5t-15.5 65.5q0 21 -0.5 65t-1 93.5t-1.5 96.5t-1 75q0 40 -7.5 62.5t-35.5 21.5q-20 0 -48.5 1t-49.5 0q-36 0 -45.5 19.5t13.5 49.5q25 31 57.5 73t67.5 86t68 87t59 76q24 30 46 31t46 -27q25 -30 57 -69.5t67 -82t68.5 -84t60.5 -73.5
q30 -36 23 -59t-43 -23q-12 0 -25.5 -0.5t-29 -1t-30.5 -1t-27 -0.5q-26 -1 -32.5 -16.5t-5.5 -42.5q0 -29 0.5 -77t1 -100.5t1.5 -101.5t1 -80q0 -13 -2 -27.5t-9.5 -26t-21.5 -20t-36 -8.5q-28 0 -53 -0.5t-57 -1.5z" />
    <glyph glyph-name="uniE67A" unicode="&#xe67a;" 
d="M47 442q0 43 21 58t66 15q21 0 65 -0.5t93.5 -0.5t96.5 -0.5t75 -0.5q39 -1 61.5 6.5t22.5 35.5q0 20 1.5 48.5t1.5 48.5q1 36 20.5 46t49.5 -15t71 -58.5t85 -69t86 -69.5t75 -60q30 -25 30.5 -47t-28.5 -45q-30 -25 -70.5 -56.5t-84 -65.5t-85.5 -67t-74 -59
q-36 -29 -59 -21.5t-22 44.5v24v30q0 15 -0.5 30t-0.5 27q0 26 -15.5 32.5t-42.5 6.5q-29 0 -77.5 0.5t-100.5 0.5t-101 0.5t-80 0.5q-13 0 -27.5 2.5t-26.5 10t-19 21t-7 37.5q0 27 -0.5 53t0.5 57z" />
    <glyph glyph-name="uniE67B" unicode="&#xe67b;" 
d="M512 834q-92 0 -175 -35.5t-143.5 -96t-96 -143.5t-35.5 -175t35.5 -175t96 -143.5t143.5 -96t175 -35.5t175 35.5t143.5 96t96 143.5t35.5 175t-35.5 175t-96 143.5t-143.5 96t-175 35.5zM760 244q-9 -8 -22.5 -0.5t-28.5 27.5q-12 -33 -32 -62q45 -15 45 -41
q0 -22 -34 -38t-83 -16q-58 0 -93 22q-34 -22 -93 -22q-48 0 -82 16t-34 38q0 26 44 41q-19 28 -32 62q-14 -20 -27.5 -27.5t-22.5 0.5q-12 11 -8 45.5t21 71.5q8 17 18 31q2 109 65 185.5t151 76.5t151 -76.5t66 -185.5q9 -14 17 -31q18 -37 22 -71.5t-8 -45.5z" />
    <glyph glyph-name="uniE67C" unicode="&#xe67c;" 
d="M357 502h284v-118h-284v118zM512 829q-91 0 -173.5 -35t-142 -95t-95 -142.5t-35.5 -173t35.5 -173t95 -142t142 -95t173.5 -35.5t173.5 35.5t142 95t95 142t35.5 173t-35.5 173t-95 142.5t-142 95t-173.5 35zM262 668h498v-47h-498v47zM712 550v-214h-426v214h426z
M760 147h-522v47h163q-5 17 -12 32t-12 22.5t-16 23.5t-16 23l56 20q33 -49 59 -121h106q5 12 25 54.5t29 68.5l61 -25q-7 -15 -24 -43.5t-27 -54.5h130v-47z" />
    <glyph glyph-name="uniE67D" unicode="&#xe67d;" 
d="M658 -108h223l-483 484l483 520h-223l-483 -520z" />
    <glyph glyph-name="uniE67E" unicode="&#xe67e;" 
d="M630 332v-103h-104v-104h-104v-104h-103v726h103v-103h104v-104h104v-104h104v-104h-104z" />
    <glyph glyph-name="uniE67F" unicode="&#xe67f;" horiz-adv-x="1029" 
d="M942 378q19 -18 20 -39.5t-14 -36.5q-18 -15 -40.5 -14t-35.5 13q-5 3 -27.5 24.5t-54.5 52t-68.5 65t-69 65t-56 53t-29.5 28.5q-29 26 -57 25t-55 -25q-9 -9 -33.5 -31.5t-57 -53.5t-68.5 -64t-66.5 -62t-52.5 -49t-27 -24q-13 -11 -35.5 -12t-39.5 14q-18 16 -17 39
t16 36q5 6 33 32t66.5 62t83 77.5t83 77.5t66 61.5t31.5 30.5q34 33 74 33.5t68 -26.5q5 -5 22 -21.5t42 -40.5t55.5 -53.5t62 -59.5t61.5 -60t55.5 -53.5t42.5 -41.5zM455 508q23 21 54.5 22.5t56.5 -22.5q3 -2 16 -15l34 -31q20 -19 45 -42.5t51 -46.5l135 -126v-171
q0 -19 -15 -34.5t-40 -16.5h-170v140q0 29 -28 29h-172q-15 0 -21 -9t-6 -20q0 -6 -0.5 -28t-0.5 -47v-65h-165q-26 0 -41 12t-15 33v179q73 68 134 123l50 46q25 23 46 42t35 32t17 16z" />
    <glyph glyph-name="uniE680" unicode="&#xe680;" 
d="M510 597q-27 66 -73 109t-96 56.5t-101 2.5t-90.5 -44.5t-63.5 -94t-21 -137.5q2 -49 22 -93t53.5 -79t66 -61t74.5 -57t63 -51q46 -43 97.5 -87t69.5 -62q12 12 64 56t103 93q21 21 61 52.5t72 58.5t65.5 62t54 78t25.5 92q7 76 -15.5 136t-62.5 92t-92.5 42.5
t-104 -3.5t-98 -55.5t-73.5 -105.5z" />
    <glyph glyph-name="uniE681" unicode="&#xe681;" 
d="M122 695zM70 695q0 21 15.5 36.5t37 15.5t36.5 -15.5t15 -36.5t-15 -36.5t-36.5 -15.5t-37 15.5t-15.5 36.5zM122.5 436q-21.5 0 -37 -15t-15.5 -36.5t15.5 -36.5t37 -15t36.5 15t15 36.5t-15 36.5t-36.5 15zM122.5 125q-21.5 0 -37 -15t-15.5 -36.5t15.5 -36.5t37 -15
t36.5 15t15 36.5t-15 36.5t-36.5 15zM252 100h698v-52h-698v52zM252 410h698v-52h-698v52zM252 721h698v-52h-698v52z" />
    <glyph glyph-name="uniE682" unicode="&#xe682;" 
d="M876 723v-194h49v218q0 23 -12.5 35t-24.5 13h-12h-217v-48h193q3 0 7 -1t10.5 -7t6.5 -16zM151 723q0 10 6 16t12 7l6 1h193v48h-217q-1 -1 -5.5 0t-12 -1.5t-14 -6.5t-12 -14.5t-5.5 -25.5v-218h49v194zM876 45q0 -10 -6 -16t-12 -7l-6 -1h-193v-48h217q1 1 5.5 0
t12 1.5t14.5 6.5t12 15t5 25v218h-49v-194zM151 45v194h-49v-218q0 -14 5.5 -25t12 -15t14 -6.5t12 -1.5t5.5 0h217v48h-193q-3 0 -7 1t-10.5 7t-6.5 16zM102 408h823v-48h-823v48z" />
    <glyph glyph-name="uniE683" unicode="&#xe683;" 
d="M681 245q60 67 79 154t-5.5 173t-88.5 151q-67 67 -157 91t-180 0t-157 -91q-51 -50 -77 -115.5t-26 -131.5t26 -131.5t77 -115.5q64 -65 150 -89.5t173 -5t155 79.5l265 -266l31 31zM649 274l-28 -29q-90 -79 -211.5 -75.5t-207.5 89.5q-90 90 -90 217t90 216.5
t217 89.5t216 -90q86 -85 90 -206.5t-76 -211.5z" />
    <glyph glyph-name="uniE684" unicode="&#xe684;" 
d="M512 571l372 -373h-159v-264h-426l-1 264h-156zM936 834v-106h-848v106h848z" />
    <glyph glyph-name="uniE685" unicode="&#xe685;" 
d="M901 772h-776q-22 0 -37 -15.5t-15 -36.5v-672q0 -22 15 -37t37 -15h776q21 0 36 15t15 37v672q0 21 -15 36.5t-36 15.5zM901 73q0 -10 -8 -17.5t-18 -7.5h-724q-11 0 -18.5 7.5t-7.5 17.5v102l181 187q13 14 26 14t19 -7l7 -7l103 -103l207 206q12 14 25 14t20 -7l7 -7
l181 -181v-211zM901 351l-161 164q-15 16 -30 22t-25.5 3t-18.5 -8t-12 -10l-4 -6l-189 -191l-88 94q-11 14 -24 19t-23 1.5t-19 -9.5t-13 -11l-5 -6l-164 -168v449q0 11 7.5 18.5t18.5 7.5h724q10 0 18 -7.5t8 -18.5v-343zM254.5 617q-21.5 0 -37 -15.5t-15.5 -37
t15.5 -36.5t37 -15t36.5 15t15 36.5t-15 37t-36.5 15.5z" />
    <glyph glyph-name="uniE686" unicode="&#xe686;" 
d="M310 429zM259 429q0 21 15 35.5t35.5 14.5t35.5 -14.5t15 -35.5t-15 -36t-35.5 -15t-35.5 15t-15 36zM512 479q-21 0 -36 -14.5t-15 -35.5t15 -36t36 -15t35.5 15t14.5 36t-14.5 35.5t-35.5 14.5zM891 757h-758q-21 0 -36 -14.5t-15 -35.5v-556q0 -21 15 -36t36 -15h263
l102 -152h27l102 152h264q21 0 35.5 15t14.5 36v556q0 21 -14.5 35.5t-35.5 14.5zM891 176q0 -10 -7.5 -17.5t-17.5 -7.5h-205l1 1h-59l-2 -1l-31 -51l-59 -96l-58 96l-31 51l-60 1v-1h-204q-11 0 -18 7.5t-7 17.5v506q0 10 7 17.5t18 7.5h708q10 0 17.5 -7.5t7.5 -17.5
v-506zM714 479q-21 0 -36 -14.5t-15 -35.5t15 -36t36 -15t35.5 15t14.5 36t-14.5 35.5t-35.5 14.5z" />
    <glyph glyph-name="uniE687" unicode="&#xe687;" 
d="M699 817h-82h-159h-80q-43 0 -75 -30t-32 -71v-7l-31 -1q-42 0 -72.5 -32.5t-30.5 -74.5v-541q0 -42 32.5 -75.5t74.5 -33.5h401q43 0 75 30t32 72v7h27q42 0 74.5 33t32.5 75v392v40zM699 762l134 -162h-81q-20 0 -36.5 29t-16.5 52v81zM699 55q0 -22 -16.5 -42.5
t-37.5 -20.5h-401q-21 0 -43.5 23.5t-22.5 44.5v541q0 21 21.5 43.5t41.5 22.5l30 1v-500q0 -42 32.5 -75t74.5 -33h321v-5zM846 168q0 -21 -23 -44t-44 -23h-414q-20 0 -37 22.5t-17 44.5v541q0 22 17 44.5t37 22.5h293v-122q0 -42 26 -68t68 -26h94v-392zM699 438h-241
q-11 0 -19 -8t-8 -19t8 -19t19 -8h241q11 0 19 8t8 19t-8 19t-19 8zM699 303h-241q-11 0 -19 -8t-8 -19t8 -19t19 -8h241q11 0 19 8t8 19t-8 19t-19 8z" />
    <glyph glyph-name="uniE688" unicode="&#xe688;" 
d="M517 843q95 0 179 -36.5t146 -98.5t98.5 -146t36.5 -179t-36.5 -179t-98.5 -146t-146 -98.5t-179 -36.5t-179 36.5t-146 98.5t-98.5 146t-36.5 179t36.5 179t98.5 146t146 98.5t179 36.5zM663.5 635q-15.5 0 -28 -6.5t-23 -18.5t-16 -28t-5.5 -33q0 -36 21.5 -61.5
t51 -25.5t51 25.5t21.5 61.5q0 17 -5.5 33t-15.5 28t-23 18.5t-28.5 6.5zM373.5 635q-29.5 0 -50.5 -25t-21 -61t21 -61.5t50.5 -25.5t50 25.5t20.5 61.5t-20.5 61t-50 25zM520 294q-51 0 -97 -10t-83 -27.5t-62.5 -41.5t-35.5 -51q-1 -1 -1 -2q-1 -3 -1 -9t2.5 -12t7 -11
t12.5 -6q26 28 63 50q31 20 79 35.5t114 15.5q68 0 117 -15.5t82 -35.5q38 -22 63 -50q18 5 20.5 19t0.5 19t-3 7t-1 3q-27 55 -100.5 88.5t-176.5 33.5z" />
    <glyph glyph-name="uniE689" unicode="&#xe689;" 
d="M360 212q4 -2 18 -19q9 -10 42 -52t52 -64q13 -15 14.5 -15.5t2.5 3.5q6 18 8 24.5t5 19t2.5 20t-4.5 12.5q-10 13 -48 59l-50 58zM372 253q9 47 9 51q1 18 9 24.5t28 6.5h120h2h1q-3 2 -3 6q-4 21 -14.5 37t-27.5 17h-84q-23 0 -22 20q2 22 2.5 69.5t3.5 72.5
q1 14 7.5 19.5t19.5 5.5q33 -2 90 0q22 0 23 2q3 4 -18 38q-2 4 -4.5 6.5t-4.5 4t-6 2t-5 0.5h-8h-6h-56h-68h-56q-27 0 -16 30q3 10 10.5 37t9.5 35q4 14 0 14q-2 -2 -19.5 -11.5t-25.5 -14.5t-18 -14.5t-14 -17.5q-6 -16 -34.5 -91t-43.5 -111q-2 -4 0 -4t14 3
q59 14 80 56q14 28 23.5 33t40.5 3q9 -1 13 -5t4 -14q-3 -79 -2 -139q0 -30 -28 -29q-14 0 -48 -0.5t-48 0.5q-15 0 -28.5 -13.5t-16.5 -33.5q-1 -4 -2 -7.5t-1 -4.5v-1q13 0 69 -0.5t69 0.5q15 0 20.5 -5t3.5 -19q-12 -75 -44 -134q-42 -78 -110 -134q-1 -1 -4 -3t-4 -2
l-2 -4q-3 -2 -2 -3.5t0 -4.5q3 -9 19 -8q39 2 67 10t49 33q35 43 66 125zM628 137v438h186v-438h-60l-85 -55l-17 55h-24zM874 629h-306v-546h60l18 -66l90 66h138v544v2z" />
    <glyph glyph-name="uniE68A" unicode="&#xe68a;" 
d="M920 676h-6h-807h-7h-21h-8v-580h879v580h-30zM879 640l-339 -350q-12 -12 -29.5 -12t-28.5 12l-340 350h737zM106 625l229 -235l-229 -235v470zM134 133l226 232l97 -101q22 -23 53.5 -23t54.5 23l97 101l225 -232h-753zM915 155l-228 235l228 235v-470z" />
    <glyph glyph-name="uniE68B" unicode="&#xe68b;" 
d="M515.5 669q33.5 0 57 23.5t23.5 57t-23.5 57t-57 23.5t-57 -23.5t-23.5 -57t23.5 -57t57 -23.5zM515.5 467q-33.5 0 -57 -23.5t-23.5 -57t23.5 -57.5t57 -24t57 24t23.5 57.5t-23.5 57t-57 23.5zM515.5 103q-33.5 0 -57 -23.5t-23.5 -57t23.5 -57t57 -23.5t57 23.5
t23.5 57t-23.5 57t-57 23.5z" />
    <glyph glyph-name="uniE68C" unicode="&#xe68c;" 
d="M399 795h-215q-33 0 -57 -23.5t-24 -56.5v-203q0 -3 1 -7q5 -29 27.5 -48t52.5 -19h215q28 2 49 21t26 46q1 4 1 7v203q0 32 -22 55t-54 25zM432 523q0 -18 -12.5 -30.5t-30.5 -12.5h-193h-7q-18 0 -30.5 12.5t-12.5 30.5v187q0 18 12.5 30.5t30.5 12.5h200
q18 0 30.5 -12.5t12.5 -30.5v-187zM920 715q0 32 -22 55t-54 25h-192q-34 0 -57.5 -23.5t-23.5 -56.5v-203q0 -3 1 -7q5 -29 27.5 -48t52.5 -19h192q28 2 49 21t26 46q1 4 1 7v203zM877 523q0 -18 -12.5 -30.5t-30.5 -12.5h-178q-17 0 -30 12.5t-13 30.5v187q0 18 13 30.5
t30 12.5h178q18 0 30.5 -12.5t12.5 -30.5v-187zM399 336h-215q-33 0 -57 -23.5t-24 -57.5v-202q0 -4 1 -7q5 -29 27.5 -48.5t52.5 -19.5h215v1q28 1 49 20t26 47q1 3 1 7v202q0 32 -22 55.5t-54 25.5zM432 64q0 -18 -12.5 -30.5t-30.5 -12.5h-193v0h-7q-18 0 -30.5 12.5
t-12.5 30.5v187q0 17 12.5 29.5t30.5 12.5h200q18 0 30.5 -12.5t12.5 -29.5v-187zM844 336h-192q-34 0 -57.5 -23.5t-23.5 -57.5v-202q0 -4 1 -7q5 -29 27.5 -48.5t52.5 -19.5h163q9 1 15 7t6 14.5t-6 15t-15 6.5h-152v0h-7q-17 0 -29.5 12.5t-12.5 30.5v187q0 17 12.5 29.5
t29.5 12.5h178q18 0 30.5 -12.5t12.5 -29.5v-146q0 -9 6.5 -15t15 -6t15 6t6.5 15v150q0 32 -22 55.5t-54 25.5z" />
    <glyph glyph-name="uniE68D" unicode="&#xe68d;" 
d="M440 552.5q0 29.5 -20.5 50.5t-50 21t-50.5 -21t-21 -50.5t21 -50t50.5 -20.5t50 20.5t20.5 50zM345 576h48v-47h-48v47zM234 133.5q7 -7.5 17.5 -7.5t17.5 8l129 172l143 -101q7 -8 18 -7q10 -1 18 7l211 235q7 7 7 17t-7 17.5t-17.5 7.5t-17.5 -7l-198 -221l-143 102
q-8 8 -19 7q-12 1 -19 -7l-140 -187q-7 -8 -7 -18t7 -17.5zM915.5 296q9.5 0 16 6.5t6.5 16.5v409q0 35 -25 60t-60 25h-683q-35 0 -60 -25t-25 -60v-683q0 -35 25 -60t60 -25h683q35 0 60 25t25 60v72q0 9 -6.5 15.5t-16 6.5t-16 -6.5t-6.5 -15.5v-1v0v-66q0 -19 -13 -32
t-32 -13h-429h-244q-19 0 -32 13t-13 32v673q0 19 13 32t32 13h673q19 0 32 -13t13 -32v-404q0 -10 6.5 -16.5t16 -6.5z" />
    <glyph glyph-name="uniE68E" unicode="&#xe68e;" 
d="M943 389q0 117 -58 216t-157 156.5t-216 57.5t-216 -57.5t-156.5 -156.5t-57.5 -216t57.5 -216t156.5 -156.5t216 -57.5q143 0 259 88q5 5 5 12q0 8 -5.5 13.5t-13.5 5.5t-14 -6q-103 -76 -230 -76q-106 0 -196 52.5t-142 142t-52 195.5t52 195.5t142 142t196 52.5
t195.5 -52.5t141.5 -142t52 -195.5q0 -98 -44 -182q-1 -4 -1 -6q0 -8 5.5 -13.5t13.5 -5.5q13 0 18 13q49 94 49 197zM400 505q0 18 -13 30.5t-31 12.5t-30.5 -12.5t-12.5 -30.5t12.5 -31t30.5 -13t31 13t13 31zM670 548q-18 0 -31 -12.5t-13 -30.5t13 -31t31 -13t30.5 13
t12.5 31t-12.5 30.5t-30.5 12.5zM702 265q0 9 -6 15.5t-15 6.5q-1 0 -5 -1h-1q-84 -39 -162 -39q-76 0 -160 38h-1q-4 2 -7 2q-9 0 -15 -6.5t-6 -15.5q0 -13 11 -19q94 -43 177 -43t178 43q12 7 12 19z" />
    <glyph glyph-name="uniE68F" unicode="&#xe68f;" 
d="M949 465.5q-7 5.5 -15.5 4.5t-14.5 -8l-37 -46q-2 27 -7 54q-23 109 -95.5 190t-175.5 115.5t-211 12t-189 -95.5t-115 -176.5t-11.5 -213t95 -190.5t175.5 -115.5t211 -11.5q117 24 203 111h1q0 1 0.5 2t1.5 1q3 5 3 9q0 8 -5.5 13t-12.5 5q-8 0 -13 -6
q-78 -78 -185 -100q-98 -21 -191 10.5t-159 105t-86.5 172t10.5 192.5t104.5 160t171.5 87t191.5 -10.5t159 -105t85.5 -172.5q5 -23 7 -46l-45 36q-7 6 -15.5 5t-14 -8t-4.5 -16t8 -15l82 -66q7 -6 16 -5t14 8h1l65 83h1q5 7 4 16t-8 14.5z" />
    <glyph glyph-name="uniE690" unicode="&#xe690;" 
d="M950 386q0 89 -35 170t-93.5 140t-139.5 93.5t-170 34.5t-170 -34.5t-140 -93.5t-93.5 -140t-34.5 -170t34.5 -170t93.5 -139.5t140 -93.5t170 -35q145 0 263 90q5 6 5 13q0 8 -5.5 13.5t-13.5 5.5t-14 -6q-105 -77 -235 -77q-107 0 -198.5 53t-144.5 144t-53 199
t53 199.5t144.5 144.5t199 53t199 -53t144.5 -144.5t53 -199.5q0 -100 -45 -185q-1 -4 -1 -6q0 -8 5.5 -13.5t13.5 -5.5q13 0 18 12q50 96 50 201zM507 620q0 9 -6 15t-15 6t-15 -6t-6 -15v-249v-4q0 -3 2 -10t6 -12.5t12.5 -10t21.5 -4.5h225q9 0 15 6t6 14.5t-6 14.5
t-15 6h-225v249z" />
    <glyph glyph-name="uniE691" unicode="&#xe691;" 
d="M949 386q0 89 -34.5 170t-93.5 139.5t-139.5 93t-169.5 34.5t-170 -34.5t-139.5 -93t-93 -139.5t-34.5 -170t34.5 -170t93 -139.5t139.5 -93t170 -34.5q145 0 263 90q5 5 5 12q0 8 -6 14t-14 6t-14 -6q-105 -78 -234 -78q-107 0 -198.5 53t-144.5 144.5t-53 199t53 198.5
t144.5 144t199 53t198.5 -53t144 -144t53 -199q0 -100 -45 -185q-1 -4 -1 -5q0 -9 5.5 -14.5t13.5 -5.5q14 0 18 13q50 95 50 200zM397 503.5q0 18.5 -13 31.5t-31 13t-31 -13t-13 -31.5t13 -31t31 -12.5t31 12.5t13 31zM671.5 548q-18.5 0 -31.5 -13t-13 -31.5t13 -31
t31.5 -12.5t31.5 12.5t13 31t-13 31.5t-31.5 13zM342 225q3 0 7 1q78 35 163 35q88 0 165 -35q5 -1 6 -1q9 0 15.5 6t6.5 15q0 12 -12 20h-1q-87 39 -180 39t-181 -39q-11 -7 -11 -20q0 -9 6.5 -15t15.5 -6z" />
    <glyph glyph-name="uniE692" unicode="&#xe692;" 
d="M891.5 478q-8.5 0 -15 -6.5t-6.5 -14.5v-1v0v-377q0 -18 -12.5 -30.5t-29.5 -12.5h-408h-231q-18 0 -30.5 12.5t-12.5 30.5v616q0 18 12.5 30.5t30.5 12.5h411q9 0 15 6t6 15t-6 15t-15 6h-416q-33 0 -57 -23.5t-24 -57.5v-208v-417q0 -33 24 -57t57 -24h648q33 0 57 24
t24 57v383q0 8 -6.5 14.5t-15 6.5zM496 205l405 405q18 18 16.5 45t-21.5 47l-38 39q-21 20 -48 21.5t-45 -16.5l-405 -406zM795 715q7 7 17.5 6.5t17.5 -7.5l39 -39q7 -7 7.5 -17.5t-5.5 -17.5l-45 -45l-75 76zM794 563l-302 -301l-75 75l302 302zM360 340l-42 -153
q-3 -11 5 -18.5t19 -5.5l152 42l-31 31l-99 -27l27 99z" />
    <glyph glyph-name="uniE693" unicode="&#xe693;" 
d="M690 505v290q-5 3 -16 8t-44.5 15t-67.5 14.5t-83.5 0.5t-96.5 -20zM717 334v449q7 -3 18.5 -9t43 -29.5t58.5 -51t54.5 -73.5t41.5 -98zM627 203l310 292l5 -11q4 -7 9 -33.5t4.5 -57.5t-11.5 -82t-34 -108h-283zM468 166h420q-3 -6 -7.5 -15.5t-23 -36t-42 -50
t-66.5 -50t-93 -42.5zM331 258v-273q5 -3 13.5 -7t37 -13.5t60.5 -14.5t82.5 -3t102.5 15zM89 244l212 191v-433q-5 1 -14.5 5.5t-36 23t-51 43t-56 70t-54.5 100.5zM84 275q-2 6 -5 17.5t-8 46t-5 68t9 78.5t28 83h292zM121 598q3 6 8 15.5t24.5 37.5t43.5 52.5t65 53
t88 46.5l199 -205h-428z" />
    <glyph glyph-name="uniE694" unicode="&#xe694;" 
d="M572 384q-8 0 -14.5 -6.5t-6.5 -14.5q0 -7 6.5 -13t14.5 -6q11 0 18.5 5.5t7.5 13.5q0 9 -7.5 15t-18.5 6zM504 483q12 0 19.5 7t7.5 19t-7.5 18.5t-19.5 6.5t-21 -7t-9 -18q0 -12 9 -19t21 -7zM512 834q-91 0 -174.5 -36t-143.5 -96t-96 -143.5t-36 -175t36 -174.5
t96 -143.5t143.5 -96t175 -35.5t174.5 35.5t143.5 96t96 143.5t35.5 174.5t-35.5 175t-96 143.5t-143.5 96t-175 36zM427 270q-31 0 -72 11l-74 -37l21 63q-83 58 -83 139q0 75 61 125.5t147 50.5q77 0 136.5 -41t72.5 -104q-11 2 -20 2q-74 0 -125 -48t-51 -117
q0 -20 6 -44h-19zM733 198l15 -53l-56 32q-53 -11 -63 -11q-74 0 -125 44t-51 106.5t51 107t125 44.5q70 0 123 -44.5t53 -106.5q0 -66 -72 -119zM359 534q-12 0 -21.5 -7t-9.5 -18t9.5 -18.5t21.5 -7.5q11 0 19 7t8 19q0 11 -8 18t-19 7zM687 384q-9 0 -15 -6t-6 -15
q0 -7 6.5 -13t14.5 -6q10 0 17.5 5.5t7.5 13.5q0 9 -7 15t-18 6zM687 384z" />
    <glyph glyph-name="uniE695" unicode="&#xe695;" 
d="M877 639q-31 42 -78 89q-48 48 -90 79q-52 38 -82 38h-446q-30 0 -51 -21t-21 -51v-778q0 -30 21 -51t51 -21h662q30 0 51 21t21 51v562q0 30 -38 82zM758 688q38 -39 65 -74h-138v139q35 -27 73 -65v0zM858 -5q0 -6 -4.5 -10t-10.5 -4h-662q-6 0 -10.5 4t-4.5 10v778
q0 6 4.5 10t10.5 4h446v-201q0 -12 8.5 -20.5t20.5 -8.5h202v-562zM764 92l-163 162q44 55 44 125q0 83 -58.5 141.5t-141.5 58.5t-141.5 -58.5t-58.5 -141.5t58.5 -141.5t141.5 -58.5q66 0 111 32l164 -163q11 -11 22 0l22 21q11 12 0 23zM445 248q-54 0 -92.5 38.5
t-38.5 92.5t38.5 92t92.5 38t92.5 -38t38.5 -92t-38.5 -92.5t-92.5 -38.5zM445 248z" />
    <glyph glyph-name="uniE696" unicode="&#xe696;" 
d="M707 824h-390q-34 0 -58.5 -24.5t-24.5 -59.5v-723q0 -34 24.5 -58.5t58.5 -24.5h390q34 0 58.5 24.5t24.5 58.5v723q0 35 -24.5 59.5t-58.5 24.5zM512 -10q-23 0 -39.5 16t-16.5 39t16.5 39.5t39.5 16.5t39.5 -16.5t16.5 -39.5t-16.5 -39t-39.5 -16zM734 156h-444v556
h444v-556z" />
    <glyph glyph-name="uniE697" unicode="&#xe697;" 
d="M190 425q11 0 18.5 7.5t7.5 18.5t-7.5 18.5t-18.5 7.5h-1h-62h-4q-15 0 -25.5 -10.5t-10.5 -25.5v-434q0 -14 10 -24.5t25 -10.5h2h4h61v0h1q10 0 17 7.5t7 17.5t-7 17.5t-17 7.5h-51l2 403h49zM927 462q-27 43 -82 46h-5l-206 1q23 66 23 129q0 41 -9 83v-1
q-8 36 -36.5 59t-64.5 23q-42 0 -69 -31t-27 -75v-3v-3v-4q-2 -80 -59 -139t-137 -68v-55l-1 -222v-230h11h500h9q22 0 47 16t38 42q3 5 5 11l77 345q2 5 1 12q3 35 -15 64zM894 409l-83 -368q-4 -9 -13 -15q-6 -4 -14 -5h-4l-477 1v407q77 35 121 72t67 102q6 17 9 33
q3 13 4 27.5t1 22.5v8q-3 25 12 39t33 14q18 -1 34 -19t16 -33q6 -28 6 -58q0 -16 -1.5 -30.5t-2.5 -20.5l-1 -6q-9 -46 -31 -87q-3 -7 -3 -16q0 -13 10 -17.5t28 -4.5h239h15q20 1 31 -17q8 -13 4 -29zM265 -28v0v0z" />
    <glyph glyph-name="uniE698" unicode="&#xe698;" 
d="M82 385q0 -117 57.5 -216t156.5 -156.5t216 -57.5t216 57.5t156.5 156.5t57.5 216t-57.5 216t-156.5 156.5t-216 57.5t-216 -57.5t-156.5 -156.5t-57.5 -216zM698 478q7 8 17.5 8.5t17 -6t6 -16.5t-8.5 -18l-198 -200q-8 -8 -20 -8q-11 -1 -20 8l-198 200q-7 8 -8 18
t6 16.5t17 6t17 -8.5l186 -187z" />
    <glyph glyph-name="uniE699" unicode="&#xe699;" 
d="M512 -45q117 0 216 57.5t156.5 156.5t57.5 216t-57.5 216t-156.5 156.5t-216 57.5t-216 -57.5t-156.5 -156.5t-57.5 -216t57.5 -216t156.5 -156.5t216 -57.5zM512 480l-186 -188q-7 -8 -17 -8.5t-17 6t-6 16.5t8 18l198 200q9 9 20 8q12 1 20 -8l198 -200q8 -8 8.5 -18
t-6 -16.5t-17 -6t-17.5 8.5z" />
    <glyph glyph-name="uniE69A" unicode="&#xe69a;" 
d="M82 385q0 -117 57.5 -216t156.5 -156.5t216 -57.5t216 57.5t156.5 156.5t57.5 216t-57.5 216t-156.5 156.5t-216 57.5t-216 -57.5t-156.5 -156.5t-57.5 -216zM607 385l-188 186q-8 7 -8.5 17.5t6 17t16.5 6t18 -8.5l200 -198q9 -8 8 -20q1 -12 -8 -20l-200 -198
q-8 -7 -18 -8t-16.5 5.5t-6 17t8.5 17.5z" />
    <glyph glyph-name="uniE69B" unicode="&#xe69b;" 
d="M512 815q-117 0 -216 -57.5t-156.5 -156.5t-57.5 -216t57.5 -216t156.5 -156.5t216 -57.5t216 57.5t156.5 156.5t57.5 216t-57.5 216t-156.5 156.5t-216 57.5zM606 199q7 -7 8 -17.5t-6 -17t-17 -5.5t-18 8l-200 198q-8 8 -8 20t8 20l200 198q8 8 18 8.5t17 -6t6 -17
t-8 -17.5l-188 -186z" />
    <glyph glyph-name="uniE69C" unicode="&#xe69c;" 
d="M747 384q0 -39 27.5 -66.5t66 -27.5t66 27.5t27.5 66.5t-27.5 66.5t-66 27.5t-66 -27.5t-27.5 -66.5zM90 384q0 -39 27.5 -66.5t66 -27.5t66 27.5t27.5 66.5t-27.5 66.5t-66 27.5t-66 -27.5t-27.5 -66.5zM418 384q0 -39 27.5 -66.5t66.5 -27.5t66.5 27.5t27.5 66.5
t-27.5 66.5t-66.5 27.5t-66.5 -27.5t-27.5 -66.5z" />
    <glyph glyph-name="uniE69D" unicode="&#xe69d;" 
d="M510 791q-18 0 -33.5 -9t-23.5 -25l-97 -197l-223 -33q-18 -2 -31 -13t-19 -27q-12 -34 14 -60l164 -160l-38 -222q-6 -36 26 -58q16 -10 36 -10q15 0 30 7l195 103l195 -103q14 -7 30 -7q19 0 35 10q32 22 26 58l-38 222l164 160q26 26 14 60q-5 16 -18.5 27t-30.5 13
l-224 33l-97 197q-8 16 -23 25t-33 9z" />
    <glyph glyph-name="uniE69E" unicode="&#xe69e;" 
d="M510 753q15 0 21 -12l97 -198q9 -18 29 -21l224 -33q14 -2 18 -14t-5 -20l-164 -161q-14 -14 -11 -33l38 -222q2 -13 -9 -20q-6 -4 -13 -4q-6 0 -12 3l-195 102q-9 5 -18.5 5t-18.5 -5l-195 -102q-5 -3 -11 -3q-8 0 -14 4q-11 7 -9 20l38 222q3 19 -11 33l-164 161
q-9 8 -5 20t18 14l224 33q20 3 29 21l98 198q6 12 21 12zM510 791q-18 0 -33.5 -9t-23.5 -25l-97 -197l-223 -33q-18 -2 -31 -13t-19 -27q-12 -34 14 -60l164 -160l-38 -222q-6 -36 26 -58q16 -10 36 -10q15 0 30 7l195 103l195 -103q14 -7 30 -7q19 0 35 10q32 22 26 58
l-38 222l164 160q26 26 14 60q-5 16 -18.5 27t-30.5 13l-224 33l-97 197q-8 16 -23 25t-33 9z" />
    <glyph glyph-name="uniE69F" unicode="&#xe69f;" horiz-adv-x="1927" 
d="M1665 744q31 0 58 -11.5t48 -32t32.5 -48t11.5 -57.5v-432q0 -32 -11.5 -59t-32.5 -47.5t-48 -32.5t-58 -12h-1392q-32 0 -59 12t-47.5 32.5t-32.5 47.5t-12 59v432q0 30 12 57.5t32.5 48t47.5 32t59 11.5h1392zM573 581h-55v-171h-169v171h-57v-399h57v166h169v-166h55
v399zM913 579h-282v-60h112v-337h57v337h113v60zM1363 579h-89l-103 -292l-113 292h-88v-398h54v290l106 -290h68l110 285v-285h55v398zM1703 239h-170v339h-56v-397h226v58z" />
    </font>
</defs>
</svg>
