<?xml version="1.0" standalone="no"?>
<!DOCTYPE svg PUBLIC "-//W3C//DTD SVG 1.1//EN" "http://www.w3.org/Graphics/SVG/1.1/DTD/svg11.dtd" >
<svg xmlns="http://www.w3.org/2000/svg">
<metadata>Generated by IcoMoon</metadata>
<defs>
<font id="iconfont" horiz-adv-x="1024">
<font-face units-per-em="1024" ascent="896" descent="-128" />
<missing-glyph horiz-adv-x="1024" />
<glyph unicode="&#x20;" horiz-adv-x="0" d="" />
<glyph unicode="&#xe600;" glyph-name="up" d="M81.953 178.176c12.288-12.288 31.328-13.024 43.008-2.016l369.984 369.952c15.072 15.872 19.008 15.808 34.817 0l369.952-369.952c11.68-11.039 30.72-10.272 43.008 2.016 12.512 12.512 13.216 32.032 1.6 43.68l-410.944 410.944c-5.056 5.056-11.648 7.328-18.464 7.744h-5.152c-6.816-0.448-13.408-2.72-18.464-7.744l-410.944-410.944c-11.585-11.648-10.88-31.2 1.6-43.68z" />
<glyph unicode="&#xe601;" glyph-name="liebiao" d="M472.064 496.128c0-46.592-38.4-84.992-84.992-84.992h-302.080c-46.592 0-84.992 38.4-84.992 84.992v314.88c0 46.592 38.4 84.992 84.992 84.992h302.080c46.592 0 84.992-38.4 84.992-84.992v-314.88zM472.064-43.008c0-46.592-38.4-84.992-84.992-84.992h-302.080c-46.592 0-84.992 38.4-84.992 84.992v314.88c0 46.592 38.4 84.992 84.992 84.992h302.080c46.592 0 84.992-38.4 84.992-84.992v-314.88zM1024 496.128c0-46.592-38.4-84.992-84.992-84.992h-302.080c-46.592 0-84.992 38.4-84.992 84.992v314.88c0 46.592 38.4 84.992 84.992 84.992h302.080c46.592 0 84.992-38.4 84.992-84.992v-314.88zM1024-43.008c0-46.592-38.4-84.992-84.992-84.992h-302.080c-46.592 0-84.992 38.4-84.992 84.992v314.88c0 46.592 38.4 84.992 84.992 84.992h302.080c46.592 0 84.992-38.4 84.992-84.992v-314.88z" />
<glyph unicode="&#xe602;" glyph-name="list" horiz-adv-x="1077" d="M348.523 339.088h-232.286c-1.017 0.033-2.213 0.052-3.413 0.052-62.264 0-112.747-50.438-112.82-112.685v-236.425c-0.002-0.268-0.003-0.585-0.003-0.902 0-64.375 51.933-116.621 116.188-117.128h232.334c64.694 0.088 117.259 51.897 118.566 116.29l0.002 0.122v233.544c-1.686 64.503-53.941 116.255-118.485 117.13l-0.084 0.001zM395.231-15.54c0.001-0.107 0.002-0.233 0.002-0.36 0-22.225-18.017-40.241-40.241-40.241-0.064 0-0.127 0-0.191 0h-242.516c-0.054 0-0.118 0-0.181 0-22.225 0-40.241 18.017-40.241 40.241 0 0.126 0.001 0.253 0.002 0.379v-0.019 242.347c0 0.053 0 0.117 0 0.18 0 22.225 18.017 40.241 40.241 40.241 0.063 0 0.127 0 0.19 0h242.516c0.053 0 0.117 0 0.18 0 22.225 0 40.241-18.017 40.241-40.241 0-0.063 0-0.127 0-0.19v0.010zM614.583 734.316h423.613c0.5-0.023 1.086-0.037 1.676-0.037 20.289 0 36.872 15.864 38.022 35.865l0.005 0.102c-1.155 20.102-17.738 35.967-38.027 35.967-0.589 0-1.176-0.013-1.759-0.040l0.083 0.003h-423.613c-0.5 0.023-1.086 0.037-1.676 0.037-20.289 0-36.872-15.864-38.022-35.865l-0.005-0.102c1.155-20.102 17.738-35.967 38.027-35.967 0.589 0 1.176 0.013 1.759 0.040l-0.083-0.003zM348.523 896h-232.286c-64.304-0.507-116.236-52.753-116.236-117.128 0-0.317 0.001-0.634 0.004-0.95v0.049-236.418c0.042-61.483 49.894-111.308 111.382-111.308 1.706 0 3.403 0.038 5.090 0.114l-0.24-0.009h232.286c64.694 0.088 117.259 51.897 118.566 116.29l0.002 0.122v233.544c-1.8 64.166-54.158 115.518-118.551 115.694h-0.017zM395.231 541.373c0.001-0.107 0.002-0.233 0.002-0.36 0-22.225-18.017-40.241-40.241-40.241-0.064 0-0.127 0-0.191 0h-242.516c-0.054 0-0.118 0-0.181 0-22.225 0-40.241 18.017-40.241 40.241 0 0.126 0.001 0.253 0.002 0.379v-0.019 242.526c0 0 0 0 0 0 0 22.225 18.017 40.241 40.241 40.241 0.063 0 0.126 0 0.189 0h242.516c0.053 0 0.117 0 0.18 0 22.162 0 40.139-17.915 40.241-40.052v-0.010zM614.403 518.737h423.792c0.654-0.041 1.418-0.064 2.188-0.064 20.19 0 36.658 15.936 37.512 35.916l0.003 0.077c-1.056 20.087-17.601 35.975-37.857 35.975-0.649 0-1.295-0.016-1.936-0.049l0.090 0.004h-423.792c-0.497 0.023-1.080 0.037-1.666 0.037-20.253 0-36.796-15.883-37.852-35.872l-0.004-0.094c1.061-20.083 17.604-35.966 37.856-35.966 0.586 0 1.169 0.013 1.749 0.040l-0.082-0.003zM1038.196 249.263h-423.613c-0.002 0-0.004 0-0.006 0-19.843 0-35.93-16.086-35.93-35.93s16.086-35.93 35.93-35.93c0.002 0 0.004 0 0.006 0h423.612c0.002 0 0.004 0 0.006 0 19.843 0 35.93 16.086 35.93 35.93s-16.086 35.93-35.93 35.93c-0.002 0-0.004 0-0.006 0v0zM1038.196 33.684h-423.792c-19.843 0-35.93-16.086-35.93-35.93s16.086-35.93 35.93-35.93v0h423.792c19.843 0 35.93 16.086 35.93 35.93s-16.086 35.93-35.93 35.93v0z" />
<glyph unicode="&#xe603;" glyph-name="shouye" d="M949.408 460.832l-77.728 67.568v87.452c0 17.253-13.962 31.233-31.211 31.233s-31.21-13.98-31.21-31.233v-33.19l-276.341 240.214c-1.885 1.647-4.016 3.091-6.311 4.259l-0.176 0.081-0.007 0.003c-0.422 0.211-0.849 0.41-1.279 0.6-0.046 0.020-0.092 0.043-0.139 0.064-0.171 0.085-0.552 0.245-0.936 0.397l-0.218 0.076c-0.094 0.037-0.187 0.078-0.282 0.114-0.342 0.13-0.687 0.248-1.033 0.365-0.14 0.048-0.278 0.1-0.419 0.146-0.309 0.1-0.62 0.189-0.933 0.279-0.176 0.051-0.352 0.107-0.529 0.156-0.299 0.080-0.6 0.15-0.9 0.223-0.189 0.045-0.376 0.095-0.564 0.136-0.315 0.070-0.634 0.127-0.95 0.186-0.175 0.033-0.348 0.070-0.52 0.1-0.365 0.062-0.73 0.112-1.096 0.16-0.125 0.017-0.25 0.040-0.377 0.055-0.317 0.043-0.786 0.090-1.257 0.127l-0.104 0.006c-0.037 0.003-0.075 0.008-0.112 0.010-0.693 0.055-1.502 0.086-2.317 0.086-4.414 0-8.615-0.917-12.421-2.571l0.201 0.078c-0.052-0.022-0.104-0.042-0.155-0.065-0.33-0.143-0.657-0.297-0.984-0.452-0.15-0.070-0.3-0.137-0.448-0.211-0.237-0.118-0.47-0.244-0.706-0.367-0.234-0.123-0.469-0.244-0.7-0.373-0.158-0.088-0.313-0.183-0.469-0.274-0.304-0.177-0.607-0.355-0.906-0.542-0.096-0.060-0.19-0.125-0.285-0.187-0.352-0.226-0.702-0.458-1.046-0.7-0.060-0.043-0.12-0.088-0.18-0.13-0.37-0.265-0.738-0.537-1.098-0.82-0.055-0.042-0.108-0.087-0.162-0.13-0.357-0.283-0.709-0.571-1.054-0.871l-0.065-0.053-286.475-249.024v31.627c0 17.254-13.962 31.234-31.211 31.234s-31.211-13.98-31.211-31.234v-83.29c0-0.844 0.043-1.677 0.108-2.504l-67.66-58.814c-13.020-11.316-14.398-31.041-3.080-44.054 6.176-7.107 14.853-10.747 23.587-10.747 0.010 0 0.022 0 0.034 0 7.843 0 15.009 2.905 20.478 7.697l-0.036-0.031 395.958 344.191 395.958-344.19c5.433-4.762 12.597-7.667 20.439-7.667 0.013 0 0.026 0 0.039 0h-0.002c8.724 0 17.407 3.64 23.578 10.747 11.327 13.014 9.944 32.738-3.080 44.054zM845.634 411.328c-17.25 0-31.234-13.98-31.234-31.233v-310.295c0-39.133-26.928-72.197-58.807-72.197h-486.238c-31.88 0-58.808 33.064-58.808 72.197v310.294c0 17.254-13.985 31.233-31.233 31.233-17.249 0-31.233-13.98-31.233-31.233v-310.294c0-74.251 54.405-134.665 121.275-134.665h486.237c66.87 0 121.275 60.414 121.275 134.665v310.294c0 17.254-13.986 31.234-31.234 31.234zM390.587 490.216c-17.25 0-31.234-13.98-31.234-31.233v-30.471c0-17.254 13.986-31.234 31.234-31.234 17.249 0 31.233 13.98 31.233 31.234v30.47c0 17.254-13.984 31.234-31.233 31.234zM634.36 490.216c-17.248 0-31.233-13.98-31.233-31.233v-30.471c0-17.254 13.986-31.234 31.234-31.234s31.233 13.98 31.233 31.234v30.47c0.001 17.254-13.984 31.234-31.233 31.234zM589.27 349.155c-14.54 9.314-33.842 5.053-43.15-9.455-0.122-0.193-13.38-19.45-33.969-19.45-20.008 0-32.454 18.138-33.276 19.378-9.176 14.418-28.27 18.81-42.835 9.75-14.65-9.099-19.145-28.356-10.045-43.007 11.215-18.047 41.98-48.59 86.157-48.59 43.959 0 75.1 30.309 86.574 48.224 9.302 14.53 5.068 33.848-9.456 43.15z" />
<glyph unicode="&#xe604;" glyph-name="shoucang" d="M707.584 802.816c-77.312 0-148.992-38.912-196.608-102.912-47.104 64-119.296 102.912-196.608 102.912-139.264 0-252.416-123.904-252.416-275.968 0-90.624 40.448-154.624 73.216-205.824 94.72-148.992 333.312-333.824 343.552-341.504 9.728-7.68 20.992-11.264 32.256-11.264s22.528 3.584 32.256 11.264c10.24 7.68 248.32 193.024 343.552 341.504 32.768 51.2 73.216 115.2 73.216 205.824 0 152.064-113.152 275.968-252.416 275.968z" />
<glyph unicode="&#xe605;" glyph-name="xuanzhong" d="M821.571 695.205c-83.065 83.051-193.496 128.788-310.96 128.788-117.479 0-227.92-45.742-310.976-128.788-83.064-83.057-128.817-193.511-128.817-311.005 0-117.464 45.753-227.895 128.818-310.97 83.056-83.051 193.496-128.823 310.976-128.823 117.463 0 227.894 45.771 310.975 128.823 83.066 83.075 128.818 193.506 128.818 310.97s-45.753 227.949-128.833 311.005v0 0zM752.091 512.995l-299.51-299.517c-0.192-0.188-0.381-0.322-0.569-0.511-5.713-5.443-13.069-8.184-20.423-8.184-2.818 0-5.637 0.376-8.378 1.18-0.025 0.029-0.053 0.029-0.078 0.029-1.291 0.4-2.524 0.881-3.763 1.421-3.164 1.45-6.17 3.434-8.776 6.065h-0.014l-141.741 141.732c-11.595 11.595-11.595 30.386 0 41.982 11.594 11.599 30.386 11.599 41.98 0l120.77-120.764 278.521 278.547c11.595 11.594 30.386 11.594 41.981 0 11.565-11.594 11.565-30.386 0-41.98v0 0zM752.091 512.995" />
<glyph unicode="&#xe606;" glyph-name="zuo1" horiz-adv-x="1365" d="M288.267 419.333h837.067c23.733 0 43.067-19.333 43.067-43.067s-19.333-43.067-43.067-43.067h-837.067c-23.733 0-43.067 19.333-43.067 43.067s19.333 43.067 43.067 43.067zM540.4 747.733c10.533 0 21.2-3.867 29.467-11.6 17.333-16.267 18.267-43.467 2-60.8l-274.267-292.4 274.267-292.267c16.267-17.333 15.467-44.533-2-60.8-17.333-16.267-44.533-15.467-60.8 2l-301.867 321.6c-15.6 16.533-15.6 42.4 0 58.933l301.867 321.733c8.4 9.067 19.867 13.6 31.333 13.6zM540.4 747.733" />
<glyph unicode="&#xe607;" glyph-name="xia" d="M955.358 615.023c0 9.028-2.904 18.056-8.712 24.948-11.605 13.783-30.43 13.783-42.046 0l-376.368-446.617c-12.748-15.128-33.5-15.128-46.248 0l-364.384 432.408c-11.605 13.783-30.44 13.783-42.046 0-11.616-13.783-11.616-36.112 0-49.896l364.384-432.408c35.93-42.649 94.411-42.649 130.34 0l376.368 446.616c5.808 6.892 8.712 15.921 8.712 24.949z" />
<glyph unicode="&#xe608;" glyph-name="you" d="M287.744-38.4c13.824-14.336 36.864-14.336 51.2 0l397.312 393.728c7.168 7.168 10.752 16.384 10.752 25.6s-3.584 18.432-10.24 25.6c0 0-0.512 0-0.512 0.512-0.512 0.512-0.512 1.536-1.536 2.048l-393.728 397.312c-13.824 14.336-36.864 14.336-51.2 0-14.336-13.824-14.336-36.864 0-50.688l370.688-373.76-372.224-368.64c-14.336-14.336-14.336-37.376-0.512-51.712z" />
<glyph unicode="&#xe609;" glyph-name="star" horiz-adv-x="1427" d="M985.407-126.833c-14.91 0-31.765 4.279-47.323 12.058l-222.225 111.113-223.652-110.853c-14.132-7.52-30.339-11.539-46.934-11.539-21.522-0.13-42.397 6.742-59.64 19.578-31.246 23.467-47.323 64.178-39.933 101.129l45.768 237.265-175.421 163.493c-27.097 27.486-37.47 67.29-27.227 104.371l0.389 1.167c12.706 38.248 44.341 64.956 82.719 70.142l243.618 44.341 109.298 222.096c17.503 35.136 53.287 57.696 91.016 57.696 39.415 0 76.106-23.467 91.405-58.344l108.909-221.447 243.618-42.656c38.637-5.575 70.402-33.321 81.163-70.92 12.058-36.951 2.204-77.403-25.412-104.76l-0.648-0.648-174.772-164.659 44.212-237.654c7.131-37.988-8.038-76.366-39.415-100.351-16.855-13.484-37.859-20.744-59.511-20.615zM715.858 61.164l248.026-124.078c7.261-3.63 15.688-5.964 21.393-5.964 8.816 0 17.114 2.723 23.078 7.779l1.167 0.908c14.132 10.632 21.004 27.357 17.892 43.823l-49.916 268.9 197.462 185.923c12.058 12.317 16.207 29.82 10.891 46.027l-0.519 1.685c-4.408 15.688-17.633 27.227-33.71 29.431l-1.167 0.13-273.179 47.712-122.911 249.712c-5.964 14.003-22.171 24.115-38.507 24.115-16.077 0-31.376-10.113-39.285-25.542l-122.133-248.156-274.605-49.916c-16.725-2.074-29.691-13.225-35.655-30.468-4.279-15.818 0.778-34.747 12.447-46.675l197.591-184.237-51.861-269.030c-3.112-15.558 4.279-33.45 17.892-43.693 6.872-5.186 15.688-7.909 25.023-7.909 7.131 0 14.003 1.685 19.967 4.797l0.908 0.519 249.712 124.208zM715.858 61.164" />
<glyph unicode="&#xe60a;" glyph-name="guanbi" d="M512-128c-282.829 0-512 229.171-512 512s229.171 512 512 512 512-229.171 512-512-229.171-512-512-512zM512 847.228c-255.18 0-463.228-208.047-463.228-463.228s208.047-463.228 463.228-463.228c255.18 0 463.228 208.047 463.228 463.228s-208.047 463.228-463.228 463.228zM549.39 384l198.306 198.305c9.742 9.743 9.742 26.010 0 37.39l-1.639 1.61c-4.6 4.52-10.912 7.31-17.876 7.31s-13.276-2.79-17.88-7.314l0.004 0.004-198.305-199.915-198.305 198.306c-4.6 4.52-10.912 7.31-17.876 7.31s-13.276-2.79-17.88-7.314l-1.635-1.635c-9.742-9.742-9.742-26.010 0-37.39l198.306-196.667-198.306-198.305c-9.742-9.743-9.742-26.010 0-37.39l1.639-1.639c4.6-4.52 10.912-7.31 17.876-7.31s13.276 2.79 17.88 7.314l-0.004-0.004 198.305 199.914 198.305-198.305c4.6-4.52 10.912-7.31 17.876-7.31s13.276 2.79 17.88 7.314l1.635 1.635c9.742 9.742 9.742 26.010 0 37.39l-198.306 196.696z" />
<glyph unicode="&#xe60b;" glyph-name="order" d="M268.026-38.309c-64.736 0.091-117.19 52.545-117.281 117.272v610.065c0.091 64.736 52.545 117.19 117.272 117.281h488.037c64.736-0.091 117.19-52.545 117.281-117.272v-609.984c-0.091-64.736-52.545-117.19-117.272-117.281h-0.009zM268.026 754.667c-36.277-0.046-65.674-29.442-65.719-65.715v-609.979c0.046-36.277 29.442-65.674 65.715-65.719h488.033c36.277 0.046 65.674 29.442 65.719 65.715v610.060c-0.046 36.277-29.442 65.674-65.715 65.719h-0.004zM318.944 358.179c-0.43-0.026-0.934-0.040-1.441-0.040-14.261 0-25.821 11.561-25.821 25.821s11.561 25.821 25.821 25.821c0.507 0 1.010-0.015 1.51-0.043l-0.069 0.003h386.111c0.43 0.026 0.934 0.040 1.441 0.040 14.261 0 25.821-11.561 25.821-25.821s-11.561-25.821-25.821-25.821c-0.507 0-1.010 0.015-1.51 0.043l0.069-0.003zM318.944 236.232c-0.966-0.128-2.083-0.201-3.216-0.201-14.261 0-25.821 11.561-25.821 25.821s11.561 25.821 25.821 25.821c1.134 0 2.251-0.073 3.346-0.215l-0.129 0.014h263.44c14.261 0 25.821-11.561 25.821-25.821s-11.561-25.821-25.821-25.821v0zM318.944 480.528c-14.261 0-25.821 11.561-25.821 25.821s11.561 25.821 25.821 25.821h386.111c14.261 0 25.821-11.561 25.821-25.821s-11.561-25.821-25.821-25.821v0z" />
<glyph unicode="&#xe60c;" glyph-name="shezhi" d="M881 384c0 52.4 32.9 96.8 79 114.5-11 43.2-28 83.9-50.2 121.3-45.2-20.1-99.8-11.9-136.8 25.2-37 37-45.2 91.7-25.1 136.8-37.5 22.2-78.2 39.2-121.4 50.2-17.8-46.1-62.2-79-114.5-79-52.4 0-96.8 32.9-114.5 79-43.2-11-83.9-28-121.3-50.2 20.1-45.2 11.9-99.8-25.1-136.8s-91.7-45.2-136.8-25.2c-22.3-37.4-39.3-78.1-50.3-121.3 46.1-17.8 79-62.2 79-114.5 0-52.4-32.9-96.8-79-114.5 11-43.2 28-83.9 50.2-121.3 45.2 20.1 99.8 11.9 136.8-25.2 37-37 45.2-91.7 25.1-136.8 37.5-22.2 78.2-39.2 121.4-50.2 17.8 46.1 62.2 79 114.5 79 52.4 0 96.8-32.9 114.5-79 43.2 11 83.9 28 121.3 50.2-20.1 45.2-11.9 99.8 25.1 136.8s91.7 45.2 136.8 25.2c22.3 37.4 39.3 78.1 50.3 121.3-46.1 17.7-79 62.1-79 114.5zM512 261c-67.9 0-123 55.1-123 123s55.1 123 123 123 123-55.1 123-123-55.1-123-123-123z" />
<glyph unicode="&#xe60d;" glyph-name="zu" d="M512.037-54.857c-70.546 0-365.714 276.59-365.714 548.571 0.011 201.97 163.743 365.695 365.714 365.695s365.703-163.725 365.714-365.694v-0.001c0-271.982-295.168-548.571-365.714-548.571zM512.037-128c-77.605 0-402.286 309.797-402.286 614.4 0 222.176 180.109 402.286 402.286 402.286s402.286-180.109 402.286-402.286v0c0-304.603-324.681-614.4-402.286-614.4zM512.037 822.857c-181.781 0-329.143-147.362-329.143-329.143v0c0-229.778 243.383-512 329.143-512 81.225 0 329.143 279.954 329.143 512 0 181.781-147.362 329.143-329.143 329.143v0zM512.037 384c-60.594 0-109.714 49.121-109.714 109.714s49.121 109.714 109.714 109.714c60.594 0 109.714-49.121 109.714-109.714v0c0-60.594-49.121-109.714-109.714-109.714v0z" />
<glyph unicode="&#xe60e;" glyph-name="saoyisao" d="M66.56 532.864c0-1.152 0.384-28.672 28.672-28.672s28.672 27.52 28.672 28.672v178.176c0 33.664 27.392 61.056 61.056 61.056h178.176c1.152 0 28.672 0.384 28.672 28.672s-27.52 28.672-28.672 28.672h-178.304c-65.28 0-118.272-53.12-118.272-118.272v-178.304zM750.208 412.672h-476.288c-15.744 0-28.672-12.8-28.672-28.672 0-15.744 12.8-28.672 28.672-28.672h476.288c15.744 0 28.672 12.8 28.672 28.672-0.128 15.744-12.928 28.672-28.672 28.672zM928.768 504.192c28.288 0 28.672 27.52 28.672 28.672v178.304c0 65.28-53.12 118.272-118.272 118.272h-178.304c-1.152 0-28.672-0.384-28.672-28.672s27.52-28.672 28.672-28.672h178.176c33.664 0 61.056-27.392 61.056-61.056v-178.176c0-1.152 0.384-28.672 28.672-28.672zM95.232 263.808c-28.288 0-28.672-27.52-28.672-28.672v-178.304c0-65.28 53.12-118.272 118.272-118.272h178.304c1.152 0 28.672 0.384 28.672 28.672s-27.52 28.672-28.672 28.672h-178.176c-33.664 0-61.056 27.392-61.056 61.056v178.176c0 1.152-0.384 28.672-28.672 28.672zM957.44 235.136c0 1.152-0.384 28.672-28.672 28.672s-28.672-27.52-28.672-28.672v-178.176c0-33.664-27.392-61.056-61.056-61.056h-178.176c-1.152 0-28.672-0.384-28.672-28.672s27.52-28.672 28.672-28.672h178.304c65.28 0 118.272 53.12 118.272 118.272v178.304z" />
<glyph unicode="&#xe611;" glyph-name="kefu" d="M521.547 780.747c-238.4 0-429.013-162.88-429.013-361.493 0-105.067 53.333-202.453 145.067-269.867 3.627-2.667 5.653-7.040 5.333-11.52l-15.36-137.387c-0.853-11.413 12.373-18.347 21.333-11.2l152.64 76.693c2.987 2.347 6.933 3.307 10.667 2.56 37.333-7.147 71.573-10.773 109.227-10.773 238.293 0 429.013 162.88 429.013 361.493s-190.613 361.493-428.907 361.493M736.48 308.64c-0.32-0.32-0.64-0.747-0.96-1.173-47.68-71.147-122.987-110.613-206.080-110.613-83.2 0-162.347 39.467-206.080 110.507-0.32 0.427-0.533 0.853-0.747 1.387-3.627 7.893-3.413 19.413 4.267 27.093 7.573 7.573 18.88 4.267 26.773-2.987 0.64-0.64 1.28-1.387 1.813-2.133 39.787-58.88 102.933-90.24 173.973-90.24 71.467 0 135.040 35.733 174.72 95.36 3.52 6.933 17.28 11.093 24.427 7.467 1.92-0.96 5.653-2.453 7.253-3.947 11.413-9.813 7.467-23.253 0.64-30.72" />
<glyph unicode="&#xe612;" glyph-name="shoucang2" d="M707.584 802.816c-77.312 0-148.992-38.912-196.608-102.912-47.104 64-119.296 102.912-196.608 102.912-139.264 0-252.416-123.904-252.416-275.968 0-90.624 40.448-154.624 73.216-205.824 94.72-148.992 333.312-333.824 343.552-341.504 9.728-7.68 20.992-11.264 32.256-11.264s22.528 3.584 32.256 11.264c10.24 7.68 248.32 193.024 343.552 341.504 32.768 51.2 73.216 115.2 73.216 205.824 0 152.064-113.152 275.968-252.416 275.968zM821.76 322.56c-87.552-122.88-272.896-263.168-282.112-269.824-8.704-6.656-18.944-10.24-28.672-10.24-10.24 0-19.968 3.072-28.672 10.24-9.216 6.656-190.976 148.48-282.112 274.944-29.184 46.080-75.776 103.424-75.776 184.32 0 136.192 75.776 231.936 200.192 231.936 69.12 0 144.384-66.048 186.368-123.392 42.496 57.344 117.248 123.392 186.368 123.392 124.928 0 205.824-95.744 205.824-231.936 0-80.896-51.712-143.872-81.408-189.44z" />
<glyph unicode="&#xe618;" glyph-name="SVG_daifukuan-miaobian" d="M676.119 411.927c-121.54 0-220.067-98.527-220.067-220.067s98.527-220.067 220.067-220.067c121.54 0 220.067 98.527 220.067 220.067v0c-0.132 121.486-98.581 219.935-220.054 220.067h-0.013zM676.119 27.695c-90.692 0-164.212 73.52-164.212 164.212s73.52 164.212 164.212 164.212c90.692 0 164.212-73.52 164.212-164.212v0c0-0.014 0-0.030 0-0.047 0-90.729-73.498-164.292-164.202-164.398h-0.010zM509.44 486.772c15.422 0.003 27.922 12.505 27.922 27.927s-12.5 27.924-27.922 27.927h-50.223l65.164 77.498c4.353 4.902 7.012 11.394 7.012 18.507 0 15.424-12.503 27.927-27.927 27.927-8.828 0-16.7-4.096-21.817-10.492l-0.043-0.055-79.127-94.161-78.755 93.836c-5.141 5.79-12.604 9.421-20.915 9.421-15.424 0-27.927-12.503-27.927-27.927 0-6.596 2.286-12.657 6.11-17.435l-0.043 0.055 64.745-77.172h-54.691c-0.002 0-0.003 0-0.005 0-15.424 0-27.927-12.503-27.927-27.927s12.503-27.927 27.927-27.927c0.002 0 0.004 0 0.006 0h81.361v-34.304h-81.361c-15.424 0-27.927-12.503-27.927-27.927s12.503-27.927 27.927-27.927h81.361v-85.457c0-15.424 12.503-27.927 27.927-27.927s27.927 12.503 27.927 27.927v0 85.457h81.268c15.424 0 27.927 12.503 27.927 27.927s-12.503 27.927-27.927 27.927h-81.268v34.304zM183.668 122.368v597.039c0.026 11.66 9.472 21.105 21.129 21.132h500.506c11.66-0.026 21.105-9.472 21.132-21.129v-299.523h55.855v299.52c-0.053 42.497-34.489 76.933-76.981 76.986h-500.508c-42.497-0.053-76.933-34.489-76.986-76.981v-597.044c0.027-42.517 34.473-76.98 76.981-77.033h250.28v55.855h-250.275c-11.676 0.026-21.132 9.498-21.132 21.178 0 0 0 0 0 0v0zM756.084 190.976h-67.212v86.854c-0.003 15.422-12.505 27.922-27.927 27.922s-27.924-12.5-27.927-27.922v0-114.828c0-15.424 12.503-27.927 27.927-27.927v0h95.185c15.424 0 27.927 12.503 27.927 27.927s-12.503 27.927-27.927 27.927v0z" />
<glyph unicode="&#xe619;" glyph-name="chongzhijiaofei" d="M951.7 607.9c0 30.7-24.9 55.6-55.6 55.6h-778.1c-30.7 0-55.6-24.9-55.6-55.6v-111.2h889.2v111.2zM951.7 441.2h-889.2v-448.6c0-28.5 23.1-51.6 51.6-51.6h786c28.5 0 51.6 23.1 51.6 51.6v145.2c0 0 0 0 0 0v303.4zM382.1 107.7h-222.3c-15.3 0-27.8 12.4-27.8 27.8s12.4 27.8 27.8 27.8h222.3c15.3 0 27.8-12.4 27.8-27.8 0-15.3-12.4-27.8-27.8-27.8zM437.7 218.9h-277.9c-15.3 0-27.8 12.4-27.8 27.8 0 15.3 12.4 27.8 27.8 27.8h277.9c15.3 0 27.8-12.4 27.8-27.8s-12.5-27.8-27.8-27.8zM648.4 218.9h-55.6c-15.4 0-27.8 12.4-27.8 27.8 0 15.3 12.4 27.8 27.8 27.8h55.6c15.3 0 27.8-12.4 27.8-27.8s-12.4-27.8-27.8-27.8z" />
<glyph unicode="&#xe61d;" glyph-name="you1" d="M389.115 125.78c5.305 0 10.604 2.048 14.614 6.133l203.42 207.234c12.096 12.322 18.744 28.62 18.717 45.887s-6.724 33.545-18.858 45.83l-203.323 205.864c-7.946 8.046-20.912 8.129-28.959 0.179-8.047-7.947-8.128-20.913-0.18-28.96l203.322-205.864c9.312-9.428 9.336-24.792 0.053-34.249l-203.418-207.233c-7.923-8.071-7.802-21.036 0.269-28.958 3.681-3.626 8.736-5.865 14.315-5.865 0.010 0 0.020 0 0.029 0z" />
<glyph unicode="&#xe620;" glyph-name="weixin" d="M669.3 526.6c9.8 0 19.6 0 29.4-1.6-27.7 125.8-161.8 219-315.5 219-171.6 0-312.2-117.7-312.2-264.8 0-85 45.8-156.9 124.2-210.9l-31.1-93.2 109.5 53.9c39.2-8.2 70.3-16.3 109.5-16.3 9.8 0 19.6 0 31.1 1.6-6.5 21.3-9.8 42.5-9.8 65.4 0.1 135.7 116.2 246.9 264.9 246.9zM500.9 611.6c24.5 0 39.2-16.3 39.2-39.2s-16.3-39.2-39.2-39.2c-24.5 0-47.4 16.4-47.4 39.2 0 24.5 24.6 39.2 47.4 39.2zM284.6 538.5c-24.7 0-47.8 16.2-47.8 38.8 0 24.3 24.7 38.8 47.8 38.8s39.5-16.2 39.5-38.8c0.1-22.7-16.4-38.8-39.5-38.8zM953.8 283c0 125.9-124.2 227.2-264.8 227.2-148.8 0-266.5-103-266.5-227.2 0-125.9 117.7-227.2 266.5-227.2 31.1 0 62.1 8.2 93.2 16.3l85-47.4-22.9 78.5c62.1 47.4 109.5 109.5 109.5 179.8zM602.3 322.2c-14.7 0-31.1 14.7-31.1 31.1 0 14.7 16.3 31.1 31.1 31.1 22.9 0 39.2-16.3 39.2-31.1 0-16.4-14.7-31.1-39.2-31.1zM780.3 329.8c-14.8 0-31.3 14.6-31.3 30.7 0 14.6 16.5 30.7 31.3 30.7 23.1 0 39.5-16.2 39.5-30.7 0-16.2-16.4-30.7-39.5-30.7z" />
<glyph unicode="&#xe625;" glyph-name="shoucang1" horiz-adv-x="1324" d="M886.513-128c-11.53 0-24.958 3.795-36.488 9.633l-249.724 124.935-251.621-124.935c-24.958-13.428-57.651-11.53-80.712 5.692s-36.488 48.018-30.796 76.771l51.813 269.136-197.765 184.338c-21.163 21.163-28.899 53.856-21.163 80.712 9.633 28.753 32.693 49.916 63.343 53.856l274.682 49.916 122.892 249.724c13.428 26.855 40.283 44.223 69.181 44.223s57.651-17.222 69.181-44.223l122.892-249.724 274.682-48.018c28.753-3.795 53.856-24.958 61.446-53.856 9.633-28.753 1.897-59.548-19.266-80.712l-197.619-186.235 49.916-268.99c5.692-30.796-7.735-59.548-30.796-76.771-11.53-9.633-26.855-15.471-44.078-15.471z" />
<glyph unicode="&#xe626;" glyph-name="xuanzhong1" d="M512 832c-247.424 0-448-200.576-448-448s200.576-448 448-448 448 200.576 448 448-200.576 448-448 448zM783.529 112.471c-35.286-35.287-76.359-62.983-122.078-82.321-47.301-20.006-97.583-30.15-149.451-30.15s-102.15 10.144-149.451 30.15c-45.719 19.337-86.792 47.034-122.078 82.321-35.287 35.286-62.983 76.359-82.321 122.078-20.006 47.301-30.15 97.583-30.15 149.451s10.144 102.15 30.15 149.451c19.337 45.719 47.034 86.792 82.321 122.078 35.286 35.287 76.359 62.983 122.078 82.321 47.301 20.006 97.583 30.15 149.451 30.15s102.15-10.144 149.451-30.15c45.719-19.337 86.792-47.034 122.078-82.321 35.287-35.286 62.983-76.359 82.321-122.078 20.006-47.301 30.15-97.583 30.15-149.451s-10.144-102.15-30.15-149.451c-19.338-45.718-47.034-86.792-82.321-122.078zM707.576 533.474l-259.111-259.111-132.041 132.041c-12.497 12.497-32.758 12.497-45.255 0s-12.497-32.758 0-45.255l154.668-154.668c6.249-6.249 14.438-9.373 22.627-9.373s16.379 3.124 22.627 9.373l281.739 281.738c12.497 12.497 12.497 32.758 0 45.255s-32.758 12.497-45.254 0z" />
<glyph unicode="&#xe62a;" glyph-name="gerenxinxi" d="M755.2 620.8c0-134.4-108.8-243.2-243.2-243.2s-243.2 108.8-243.2 243.2c0 134.4 108.8 243.2 243.2 243.2s243.2-108.8 243.2-243.2zM956.8 92.8c0-131.2-198.4-188.8-448-188.8-246.4 0-444.8 57.6-444.8 188.8s198.4 236.8 444.8 236.8c249.6 0 448-105.6 448-236.8z" />
<glyph unicode="&#xe632;" glyph-name="icon_kefu" d="M161.1 426.3c21.8-21.2 48.1-32.7 78.8-32.7h4.8v216.3h-13.1c25.1 60.1 63.5 100.5 115.2 134s109.1 51.1 172.2 51.1 120.7-17.9 172.6-51.5c52-33.5 90.5-73.5 115.6-133.6h-9.5v-214.7c36.1 0 57.1 10.6 78.9 31.9 21.8 21.2 32.8 46.9 32.8 77.1 0 20.1-5.1 38.7-15.5 55.7-10.3 17-24.1 30.3-41.5 39.8-24 68.2-66.5 123.9-127.4 167.2s-129.4 64.9-205.7 64.9-144.8-21.5-205.7-64.5c-60.9-43-103.3-98.9-127.4-167.6-17.9-9.5-32-22.8-42.3-39.8s-15.5-35.6-15.5-55.7c0-30.2 10.9-56.7 32.7-77.9zM519 722c-66.5 0-123.3-23-170.5-69.1s-70.8-101.8-70.8-167.2 23.6-121.1 70.8-167.2c47.2-46.1 104.2-69.1 170.9-69.1s123.6 23 170.5 69.1 70.4 101.8 70.4 167.2-23.5 121.1-70.4 167.2-103.8 69.1-170.9 69.1zM899 150.1c-33.8 50.6-80 90.4-138.7 119.4-32.4-29-69.3-51.8-110.6-68.3s-84.9-24.7-130.7-24.7-89.2 8.1-130.3 24.3c-41 16.2-77.8 39.1-110.2 68.7-58.1-29.6-103.8-69.5-137-119.8s-49.8-108.9-49.8-176c295-49 581.6-52.3 858 0 0 67-16.9 125.8-50.7 176.4z" />
<glyph unicode="&#xe640;" glyph-name="yingyeshijian" d="M512 826.182c-242.036 0-442.182-200.145-442.182-442.182s200.145-442.182 442.182-442.182 442.182 200.145 442.182 442.182-200.145 442.182-442.182 442.182zM512-11.636c-218.764 0-395.636 176.873-395.636 395.636s176.873 395.636 395.636 395.636 395.636-176.873 395.636-395.636-176.873-395.636-395.636-395.636zM488.727 640h46.545v-279.273h-46.545zM535.273 360.727h232.727v-46.545h-232.727zM488.727 360.727h46.545v-46.545h-46.545z" />
<glyph unicode="&#xe64b;" glyph-name="zuo" d="M512.001 817.343c-243.813 0-441.458-194.013-441.458-433.343s197.646-433.343 441.458-433.343c243.81 0 441.456 194.013 441.456 433.343s-197.646 433.343-441.456 433.343zM705.135 356.915h-292.076l113.715-111.615c10.776-10.58 10.776-27.726 0-38.306-10.776-10.579-28.247-10.579-39.017 0l-156.079 153.209c-6.62 6.5-8.668 15.385-7.159 23.797-1.509 8.412 0.539 17.298 7.159 23.796l156.079 153.209c10.768 10.58 28.24 10.58 39.017 0 10.776-10.571 10.776-27.725 0-38.298l-113.715-111.623h292.076c15.244 0 27.593-12.123 27.593-27.084 0-14.953-12.348-27.085-27.593-27.085z" />
<glyph unicode="&#xe64e;" glyph-name="xiugai" d="M362.425 339.51c-0.553-0.711-1.111-1.452-1.359-2.35l-42.905-157.295c-2.504-9.158 0.064-19.024 6.84-25.981 5.073-4.952 11.756-7.674 18.866-7.674 2.351 0 4.706 0.277 7.024 0.897l156.178 42.595c0.25 0 0.376-0.215 0.559-0.215 1.795 0 3.56 0.648 4.89 2.012l417.617 417.562c12.407 12.416 19.21 29.336 19.21 47.746 0 20.862-8.846 41.71-24.342 57.159l-39.44 39.504c-15.466 15.497-36.347 24.361-57.196 24.361-18.4 0-35.326-6.808-47.761-19.195l-417.56-417.675c-0.434-0.395-0.307-0.986-0.62-1.452zM889.273 649.953l-41.477-41.449-67.249 68.314 40.896 40.894c6.463 6.492 18.992 5.547 26.413-1.903l39.467-39.504c4.119-4.114 6.468-9.586 6.468-14.999-0.029-4.444-1.611-8.464-4.519-11.354zM436.695 332.953l301.347 301.364 67.281-68.361-300.788-300.777-67.841 67.775zM381.789 210.769l21.779 79.931 58.090-58.091-79.869-21.84zM911.387 483.374c-15.634 0-28.454-12.713-28.51-28.558v-385.028c0-20.197-16.398-36.594-36.623-36.594h-651.329c-20.192 0-36.655 16.396-36.655 36.594v628.445c0 20.209 16.458 36.622 36.655 36.622h419.493c15.721 0 28.485 12.773 28.485 28.498 0 15.69-12.764 28.481-28.485 28.481h-423.839c-49.223 0-89.288-40.032-89.288-89.288v-637.107c0-49.251 40.064-89.27 89.288-89.27h659.986c49.255 0 89.303 40.015 89.303 89.27v389.56c-0.061 15.663-12.847 28.375-28.481 28.375zM850.564-27.926h-659.986c-51.49 0-93.381 41.883-93.381 93.363v637.107c0 51.491 41.891 93.381 93.381 93.381h423.839c17.964 0 32.578-14.613 32.578-32.574 0-17.971-14.614-32.591-32.578-32.591h-419.493c-17.955 0-32.562-14.592-32.562-32.529v-628.444c0-17.921 14.607-32.501 32.562-32.501h651.328c17.937 0 32.53 14.58 32.53 32.501v385.029c0.064 18.011 14.691 32.652 32.604 32.652 17.891 0 32.504-14.559 32.574-32.452v-389.578c0.001-51.482-41.895-93.364-93.395-93.364zM190.578 787.739c-46.976 0-85.194-38.218-85.194-85.194v-637.107c0-46.967 38.218-85.177 85.194-85.177h659.986c46.984 0 85.21 38.21 85.21 85.177v389.561c-0.052 13.382-10.992 24.282-24.387 24.282-13.415 0-24.368-10.981-24.417-24.48v-385.014c0-22.435-18.266-40.688-40.716-40.688h-651.329c-22.469 0-40.748 18.253-40.748 40.688v628.445c0 22.45 18.279 40.715 40.748 40.715h419.493c13.45 0 24.392 10.948 24.392 24.405 0 13.447-10.941 24.387-24.392 24.387h-423.839zM343.866 142.118c-8.171 0-15.886 3.138-21.724 8.838l-0.074 0.073c-7.723 7.93-10.732 19.393-7.856 29.915l42.904 157.293c0.38 1.379 1.072 2.449 1.661 3.241 0.183 0.654 0.545 1.587 1.417 2.422l417.516 417.63c13.206 13.154 31.193 20.394 50.656 20.394 21.977 0 43.878-9.317 60.093-25.562l39.44-39.504c16.228-16.179 25.539-38.069 25.539-60.052 0-19.486-7.248-37.469-20.408-50.639l-417.619-417.562c-2.008-2.057-4.785-3.21-7.784-3.21-0.223 0-0.434 0.017-0.63 0.046l-155.029-42.282c-2.405-0.662-5.166-1.042-8.016-1.042-0.030 0-0.060 0-0.090 0h0.005zM327.899 156.777c4.102-4.003 9.717-6.472 15.909-6.472 0.021 0 0.042 0 0.062 0h-0.003c2.076 0 4.084 0.255 5.967 0.758l157.234 42.734c0.442 0 0.836-0.064 1.176-0.155 0.531 0.102 0.99 0.357 1.343 0.717v0l417.653 417.597c11.615 11.623 18.011 27.553 18.011 44.852 0 19.822-8.434 39.6-23.139 54.261l-39.447 39.511c-14.689 14.718-34.48 23.159-54.299 23.159-17.282 0-33.218-6.394-44.872-18.002l-417.010-417.125c-0.13-0.406-0.33-0.89-0.661-1.386l-0.165-0.228c-0.188-0.243-0.58-0.748-0.649-0.938l-42.9-157.272c-2.111-7.724 0.106-16.152 5.789-22.011zM375.955 204.93l25.518 93.654 68.062-68.064-93.58-25.59zM405.663 282.816l-18.040-66.209 66.158 18.092-48.118 48.117zM504.538 259.391l-73.633 73.561 307.161 307.177 73.024-74.196-306.552-306.543zM442.485 332.954l62.050-61.989 295.022 295.014-61.539 62.526-295.534-295.551zM847.772 602.694l-72.99 74.148 43.768 43.767c3.549 3.563 8.615 5.53 14.261 5.53 6.697 0 13.237-2.712 17.946-7.439l39.463-39.499c4.871-4.864 7.666-11.386 7.666-17.891-0.035-5.57-2.068-10.625-5.727-14.259l-44.385-44.356zM786.313 676.796l61.506-62.481 38.56 38.534c2.121 2.109 3.298 5.119 3.319 8.485 0 4.322-1.92 8.733-5.267 12.076l-39.471 39.507c-3.141 3.154-7.682 5.035-12.15 5.035-3.452 0-6.459-1.11-8.465-3.126l-38.032-38.029z" />
<glyph unicode="&#xe650;" glyph-name="dingwei" horiz-adv-x="1204" d="M605.487 895.922c-175.182 4.004-330.344-147.153-326.339-320.333 0-64.067 45.047-169.176 112.117-276.287 68.071-107.111 118.123-178.185 174.181-253.263 10.010-13.014 23.024-20.021 40.042-20.021 16.017 0 31.032 8.008 40.042 20.021 56.058 75.078 107.111 146.152 174.181 253.263s112.117 212.221 112.117 276.287c3.861 173.18-149.298 324.337-326.339 320.333v0 0 0zM628.511 121.116c-5.005-7.007-14.015-11.011-23.024-11.011-8.008 0-18.019 3.003-22.023 11.011-150.156 204.212-244.254 378.394-244.254 454.473 0 72.075 26.027 134.14 78.081 185.193s115.12 77.080 188.196 77.080c73.076 0 136.142-26.027 188.196-77.080 53.055-51.053 79.082-113.118 79.082-185.193 0-39.041-22.023-98.102-66.069-179.186-43.045-81.084-103.107-172.179-178.185-275.286v0 0 0zM603.485-128c-114.119 0-220.229 10.010-295.307 30.031-40.042 10.010-71.074 22.023-93.097 37.039-27.028 17.018-42.044 39.041-42.044 63.066 0 31.032 12.012 54.056 37.039 71.074 28.029 18.019 73.076 28.029 135.141 29.030l1.001-43.045c-53.055 0-91.095-9.009-112.117-22.023-12.012-8.008-18.019-20.021-18.019-35.036 0-17.018 32.033-40.042 103.107-59.061 75.078-19.020 169.176-29.173 284.296-29.173 110.115 0 212.221 11.011 283.295 29.030 69.072 17.018 101.105 40.042 101.105 59.061 0 8.008-4.004 16.017-13.014 25.026-10.010 10.010-42.044 36.037-111.116 36.037h-3.003l-1.001 43.045c31.032 0 60.062-4.004 85.089-13.014s45.047-21.022 60.062-36.037c17.018-17.018 26.027-35.036 26.027-55.057 0-24.025-14.015-46.048-41.043-63.066-22.023-15.016-53.055-27.028-93.097-37.039-74.22-19.878-178.185-29.888-293.305-29.888v0 0 0zM367.239 82.076c1.001-12.012-8.008-22.023-20.021-23.024l-32.033-2.002c-12.012 0-22.023 9.009-22.023 20.021-1.001 12.012 8.008 22.023 20.021 23.024l32.033 2.002c11.011 0 22.023-9.009 22.023-20.021v0 0zM911.663 82.076c-1.001-12.012-11.011-21.022-22.023-20.021l-32.033 1.001c-12.012 0-21.022 10.010-21.022 22.023 1.001 12.012 10.010 21.022 22.023 20.021l32.033-1.001c12.012 0 21.022-10.010 21.022-22.023v0 0zM517.824 563.147c0 46.477 37.611 84.087 84.087 84.087s84.087-37.611 84.087-84.087-37.611-84.087-84.087-84.087c-46.477 0-84.087 37.611-84.087 84.087v0zM517.824 563.147" />
<glyph unicode="&#xe653;" glyph-name="chongzhi" d="M1012.094 122.047c0-131.523-106.619-238.141-238.141-238.141 0 0-130.963-11.906-261.939-11.906s-261.967 11.906-261.967 11.906c-131.523 0-238.141 106.619-238.141 238.141 0 0-11.906 131.222-11.906 262.308 0 130.867 11.906 261.598 11.906 261.598 0 131.523 106.619 238.141 238.141 238.141 0 0 130.772 11.906 261.652 11.906 131.072 0 262.253-11.906 262.253-11.906 131.523 0 238.141-106.619 238.141-238.141 0 0 11.906-131.181 11.906-262.253 0-130.881-11.906-261.652-11.906-261.652zM737.28 554.667h-2.58c-17.49 77.018-131.782 136.533-270.486 136.533-146.801 0-266.213-66.656-272.466-150.187h-0.601v-341.333h0.601c6.253-83.517 125.665-150.187 272.466-150.187 52.524 0 101.403 8.67 143.032 23.443-13.544 8.369-25.723 18.678-36.127 30.624-32.017-8.329-68.321-13.107-106.906-13.107-128.191 0-232.107 51.965-232.107 116.053 0 7.728 1.584 15.278 4.465 22.583 48.906-42.394 132.56-70.369 227.642-70.369 25.709 0 50.476 2.198 74.056 6.021-3.523 12.793-5.557 26.187-5.707 40.073-21.613-3.331-44.551-5.134-68.349-5.134-128.191 0-232.107 51.965-232.107 116.053 0 7.728 1.584 15.278 4.465 22.583 48.906-42.394 132.56-70.369 227.642-70.369 29.628 0 57.917 2.99 84.623 8.015 9.803 19.811 23.525 37.315 40.346 51.309-36.099-11.578-78.916-18.364-124.969-18.364-128.191 0-232.107 51.965-232.107 116.053 0 7.728 1.584 15.278 4.465 22.583 48.906-42.394 132.56-70.369 227.642-70.369s178.736 27.976 227.642 70.369c2.881-7.305 4.465-14.855 4.465-22.583 0-24.071-14.664-46.421-39.745-64.963 10.622 2.266 21.613 3.523 32.918 3.523 12.725 0 25.040-1.679 36.891-4.533-0.778 1.529-1.734 3.017-2.567 4.533h13.462v191.147zM703.147 336.213c-79.176 0-143.36-64.184-143.36-143.36s64.184-143.36 143.36-143.36c79.176 0 143.36 64.184 143.36 143.36s-64.184 143.36-143.36 143.36zM703.147 90.453c-56.552 0-102.4 45.848-102.4 102.4s45.848 102.4 102.4 102.4c56.552 0 102.4-45.848 102.4-102.4s-45.848-102.4-102.4-102.4zM749.8 189.058c8.165 0 14.787 6.622 14.787 14.8 0 8.165-6.622 14.787-14.787 14.787h-21.641l22.487 23.456c5.68 5.926 5.68 15.551 0 21.477-5.693 5.926-14.909 5.926-20.589 0l-27.061-28.221-27.061 28.221c-5.68 5.926-14.896 5.926-20.576 0-5.693-5.926-5.693-15.551 0-21.477l22.487-23.456h-21.354c-8.165 0-14.787-6.622-14.787-14.787 0-8.178 6.622-14.8 14.787-14.8h32.481v-19.715h-32.481c-8.165 0-14.787-6.622-14.787-14.8 0-8.165 6.622-14.787 14.787-14.787h32.481v-21.477c0-7.823 6.335-14.172 14.172-14.172s14.172 6.349 14.172 14.172v21.477h32.481c8.165 0 14.787 6.622 14.787 14.787 0 8.178-6.622 14.8-14.787 14.8h-32.481v19.715h32.481zM464.213 418.133c-128.191 0-232.107 51.965-232.107 116.053s103.916 116.053 232.107 116.053c128.191 0 232.107-51.965 232.107-116.053s-103.916-116.053-232.107-116.053z" />
<glyph unicode="&#xe654;" glyph-name="jilu" horiz-adv-x="1026" d="M901.243 896h-778.486c-67.797 0-122.757-54.96-122.757-122.757v-740.95c0-67.797 54.96-122.758 122.757-122.758h778.486c67.797 0 122.757 54.96 122.757 122.757v740.95c0 67.798-54.96 122.758-122.757 122.758zM236.544 649.226h58.23c29.119 0 52.724-23.605 52.724-52.722 0-29.118-23.605-52.723-52.723-52.723h-58.231c-29.118 0-52.723 23.605-52.723 52.723s23.605 52.722 52.723 52.722zM822.002 153.476h-585.459c-29.117 0-52.722 23.604-52.722 52.723 0 29.117 23.605 52.723 52.722 52.723h585.459c29.118 0 52.722-23.606 52.722-52.723 0-29.118-23.604-52.723-52.722-52.723zM822.002 340.76h-585.459c-29.117 0-52.722 23.604-52.722 52.722s23.605 52.723 52.722 52.723h585.459c29.118 0 52.722-23.605 52.722-52.723s-23.604-52.722-52.722-52.722zM822.002 543.78h-366.698c-29.118 0-52.724 23.606-52.724 52.723 0 29.118 23.606 52.723 52.724 52.723h366.698c29.118 0 52.722-23.605 52.722-52.723s-23.604-52.722-52.722-52.722z" />
<glyph unicode="&#xe678;" glyph-name="sousuo1" d="M741.216 200.032l192.896-192.864c5.794-5.794 9.378-13.799 9.378-22.64 0-17.683-14.335-32.018-32.018-32.018-8.841 0-16.846 3.584-22.64 9.378v0l-192.864 192.896c-66.228-56.446-152.799-90.784-247.39-90.784-0.203 0-0.406 0-0.61 0h0.031c-212.064 0-384 171.936-384 384s171.936 384 384 384 384-171.936 384-384c0-94.528-34.144-181.056-90.784-247.968zM448 128c176.736 0 320 143.264 320 320s-143.264 320-320 320-320-143.264-320-320 143.264-320 320-320z" />
<glyph unicode="&#xe67d;" glyph-name="shouhou" d="M870.4 355.556c-14.222 2.844-28.444-5.689-31.289-22.756-31.289-159.289-170.667-275.911-335.644-275.911-122.311 0-233.244 65.422-295.822 176.356-5.689 11.378-19.911 17.067-31.289 14.222s-19.911-14.222-19.911-25.6v-105.244c0-14.222 11.378-28.444 28.444-28.444s28.444 11.378 28.444 28.444v19.911c73.956-82.489 176.356-130.844 290.133-130.844 190.578 0 352.711 133.689 389.689 318.578 2.844 14.222-8.533 28.444-22.756 31.289zM167.822 452.267c31.289 159.289 170.667 273.067 335.644 273.067 122.311 0 233.244-65.422 295.822-176.356 5.689-11.378 19.911-17.067 31.289-14.222s19.911 14.222 19.911 25.6v108.089c0 14.222-11.378 28.444-28.444 28.444s-28.444-11.378-28.444-28.444v-19.911c-71.111 85.333-176.356 133.689-290.133 133.689-190.578 0-352.711-136.533-386.844-321.422-2.844-14.222 5.689-28.444 22.756-31.289h5.689c11.378 0 22.756 8.533 22.756 22.756zM642.844 435.2c14.222 0 28.444 11.378 28.444 28.444s-11.378 28.444-28.444 28.444h-88.178l65.422 54.044c11.378 8.533 14.222 28.444 2.844 39.822-8.533 11.378-28.444 14.222-39.822 2.844l-85.333-71.111-85.333 71.111c-11.378 8.533-28.444 8.533-39.822-2.844-8.533-11.378-8.533-28.444 2.844-39.822l65.422-54.044h-88.178c-14.222 0-28.444-11.378-28.444-28.444s11.378-28.444 28.444-28.444h116.622v-68.267h-116.622c-14.222 0-28.444-11.378-28.444-28.444s11.378-28.444 28.444-28.444h116.622v-136.533c0-14.222 11.378-28.444 28.444-28.444s28.444 11.378 28.444 28.444v136.533h116.622c14.222 0 28.444 11.378 28.444 28.444s-11.378 28.444-28.444 28.444h-116.622v68.267h116.622z" />
<glyph unicode="&#xe68f;" glyph-name="ziguanjilu" d="M610.345 391.455c-70.411 0-127.713-57.836-127.713-128.928 0-69.877 57.29-126.731 127.713-126.731 71.489 0 129.666 56.852 129.666 126.731 0 69.891-59.378 128.928-129.666 128.928zM689.712 313.194l-55.159-54.039h48.988v-16.575h-62.628v-17.476h40.523v-16.575h-40.523v-49.644h-16.575v49.644h-40.523v16.575h40.523v17.476h-62.628v16.575h48.988l-55.159 54.039c-3.086 3.359-2.853 8.629 0.506 11.714s8.629 2.853 11.714-0.506l64.881-63.556 64.881 63.556c3.086 3.359 8.356 3.59 11.714 0.506 3.331-3.086 3.564-8.356 0.478-11.714zM511.29 879.917c-270.308 0-490.223-219.915-490.223-490.223s219.915-490.223 490.223-490.223c270.308 0 490.223 219.915 490.223 490.223s-219.915 490.223-490.223 490.223zM416.467 94.222h-10.090v-0.082h-82.835c-33.874 0-61.44 27.566-61.44 61.44v468.213c0 33.874 27.566 61.44 61.44 61.44h345.443c30.652 0 55.569-22.364 60.157-51.965 0.478-1.666 0.082-150.787 0.082-150.787 0-11.264-8.437-20.057-19.701-20.057s-20.48 9.216-20.48 20.48v144.657h-0.123c-1.815 9.449-10.144 16.725-19.934 16.725h-345.443c-11.292 0-20.48-9.188-20.48-20.48v-468.227c0-11.292 9.188-20.48 20.48-20.48h17.053c0.273 0.014 0.518 0.082 0.791 0.082h75.093c11.264 0 20.48-9.216 20.48-20.48s-9.23-20.48-20.494-20.48zM411.989 327.011h-62.914c-7.878 0-14.336 9.216-14.336 20.48s6.445 20.48 14.336 20.48h62.914c7.878 0 14.336-9.216 14.336-20.48s-6.458-20.48-14.336-20.48zM426.325 240.353c0-11.264-6.445-20.48-14.336-20.48h-62.914c-7.878 0-14.336 9.216-14.336 20.48s6.445 20.48 14.336 20.48h62.914c7.878 0 14.336-9.216 14.336-20.48zM355.219 434.162c-11.264 0-20.48 9.216-20.48 20.48s9.216 20.48 20.48 20.48h157.136c11.264 0 20.48-9.216 20.48-20.48s-9.216-20.48-20.48-20.48h-157.136zM355.219 541.3c-11.264 0-20.48 9.216-20.48 20.48s9.216 20.48 20.48 20.48h281.026c11.264 0 20.48-9.216 20.48-20.48s-9.216-20.48-20.48-20.48h-281.026zM610.345 94.836c-93.007 0-168.673 75.23-168.673 167.691 0 93.676 75.667 169.888 168.673 169.888 92.487 0 170.626-77.796 170.626-169.888 0-92.474-76.541-167.691-170.626-167.691z" />
<glyph unicode="&#xe6a3;" glyph-name="dianhua" d="M515.604-101.581c-269.053 0-487.942 218.891-487.942 487.942s218.891 487.956 487.942 487.956 487.942-218.891 487.942-487.942-218.891-487.956-487.942-487.956zM515.604 833.359c-246.47 0-446.982-200.527-446.982-446.982s200.527-446.982 446.982-446.982 446.982 200.527 446.982 446.982-200.513 446.982-446.982 446.982zM671.157 118.156c-172.769 0-429.534 274.050-429.534 417.997 0 57.549 77.019 118.429 118.429 118.429 43.787 0 118.415-126.279 118.415-152.986 0-18.814-8.124-32.126-14.637-42.831-5.066-8.301-8.055-13.489-8.383-19.47 6.718-21.012 85.333-99.396 107.534-107.287 5.899 0.518 13.366 4.41 21.259 8.519 12.37 6.445 27.771 14.473 46.586 14.473 30.078 0 158.748-83.927 158.748-118.429 0-65.604-64.771-118.415-118.415-118.415zM358.918 613.567c-19.129-1.679-76.336-43.663-76.336-77.414 0-123.262 240.026-377.037 388.574-377.037 32.809 0 74.861 35.348 77.346 73.878-14.527 20.508-98.796 78.698-118.21 81.073-8.26-0.028-17.012-4.588-27.13-9.858-11.892-6.198-25.355-13.216-41.478-13.216-35.772 0-147.237 111.452-147.237 147.223 0 18.268 7.973 31.348 14.39 41.861 5.284 8.684 8.383 14.063 8.629 20.617-4.602 20.876-58.272 104.448-78.547 112.873z" />
<glyph unicode="&#xe6ab;" glyph-name="daishouhuo" d="M114.7 439.7v186.9c0 37.9 30.8 68.8 68.8 68.8h336.4c37.9 0 68.8-30.9 68.8-68.8v-443.7h-186.7c-17.6 41.4-58.7 70.5-106.5 70.5s-88.9-29.1-106.5-70.5h-5.4c-37.9 0-68.8 30.9-68.8 68.8v35.9M64 287.6v-35.9c0-64.7 51.6-117.5 115.9-119.4 2.9-61.3 53.6-110.3 115.6-110.3s112.7 49 115.6 110.2h249.3c2.9-61.3 53.6-110.2 115.6-110.2s112.7 49 115.6 110.2h68.4v243.8c0 31.9-10.9 63.1-30.8 88.1l-90.2 113.1c-19.7 24.7-49.1 38.8-80.6 38.8h-119v10.6c0 65.9-53.6 119.5-119.5 119.5h-336.4c-65.9-0.1-119.5-53.7-119.5-119.5v-186.9M710.9 137.7c0 35.9 29.2 65 65 65 35.9 0 65-29.2 65-65 0-35.9-29.2-65-65-65s-65 29.1-65 65zM669.4 182.9h-30.1v382.4h119c16.1 0 31-7.2 41-19.8l90.2-113.1c12.7-16 19.8-36 19.8-56.4v-193.1h-26.8c-17.6 41.4-58.7 70.5-106.5 70.5s-88.9-29.1-106.6-70.5zM295.4 202.7c35.9 0 65-29.2 65-65 0-35.9-29.2-65-65-65s-65 29.2-65 65 29.2 65 65 65zM703.2 552.1c-14 0-25.3-11.3-25.3-25.3v-148.8h148.8c14 0 25.3 11.3 25.3 25.3s-11.3 25.3-25.3 25.3h-98.1v98.1c0 14-11.4 25.4-25.4 25.4z" />
<glyph unicode="&#xe6b8;" glyph-name="zuo11" d="M660.383 53.799l288.807 288.807c22.558 22.555 22.558 59.13 0 81.686l-288.807 288.808c-22.559 22.553-59.131 22.553-81.686 0-22.56-22.559-22.56-59.131 0-81.686l190.204-190.203h-669.214c-31.902 0-57.762-25.861-57.762-57.762s25.858-57.762 57.762-57.762h669.214l-190.203-190.204c-11.279-11.278-16.919-26.059-16.918-40.841s5.639-29.564 16.917-40.842c22.56-22.553 59.131-22.553 81.686 0.002z" />
<glyph unicode="&#xe71a;" glyph-name="xiangzuo" d="M717.8 832c9.2 0 18.5-3.6 25.7-10.8 14.4-14.4 14.4-37.5 0-51.9l-385.4-385.3 385.3-385.3c14.4-14.4 14.4-37.5 0-51.9-6.627-6.671-15.807-10.8-25.95-10.8s-19.322 4.129-25.948 10.798l-411.002 411.002c-6.671 6.627-10.8 15.807-10.8 25.95s4.129 19.322 10.798 25.948l411.002 411.002c7.8 7.2 17 11.3 26.3 11.3z" />
<glyph unicode="&#xe73a;" glyph-name="qiandao" d="M711.4 607c24.3 0 45.5 19.8 45.5 44.2v200.6c0 24.4-21.2 44.2-45.5 44.2-24.4 0-44.1-19.8-44.1-44.2v-200.7c0-24.3 19.7-44.1 44.1-44.1zM623.3 784.8h-223.3v-66.7h223.4v66.7zM884.6 784.8h-83v-66.3h86.2c25.4 0 46.7-21.4 46.7-46.8v-154.4h-845.7v154.3c0 25.4 21.4 46.8 46.7 46.8h86.8v66.3h-82.9c-64.3 0-116.8-52.7-116.8-117v-678.7c0-64.4 50.6-117 114.9-117h747.2c64.2 0 116.8 52.7 116.8 117v678.7c0 64.4-52.6 117.1-116.9 117.1zM934.5-14.4c0-25.4-21.4-46.8-46.7-46.8h-752.3c-25.3 0-46.7 21.4-46.7 46.8v465.2h845.8v-465.2zM310.7 607c24.3 0 45.5 19.8 45.5 44.2v200.6c0 24.4-21.2 44.2-45.5 44.2-24.4 0-44.1-19.8-44.1-44.2v-200.7c-0.1-24.3 19.7-44.1 44.1-44.1zM458.9 32.2l-153.4 153.4c-15 15-15 39.3 0 54.3s39.3 15 54.3 0l99.1-99.1 205.3 205.4c15 15 39.3 15 54.3 0s15-39.3 0-54.3l-259.6-259.7z" />
<glyph unicode="&#xe749;" glyph-name="sousuo" d="M902.76 65.93l-141 141c47.537 61.271 76.206 139.253 76.206 223.931 0 202.749-164.361 367.11-367.11 367.11s-367.11-164.361-367.11-367.11c0-202.749 164.361-367.11 367.11-367.11 96.929 0 185.085 37.565 250.702 98.932l-0.208-0.192 139-139c5.429-5.429 12.93-8.788 21.215-8.788 16.57 0 30.003 13.433 30.003 30.003 0 8.285-3.358 15.786-8.788 21.215v0zM472.23 124.29c-168.18 0-305 136.82-305 305s136.82 305 305 305 305-136.82 305-305-136.82-305-305-305z" />
</font>
</defs>
</svg>
