<?xml version="1.0" standalone="no"?>
<!DOCTYPE svg PUBLIC "-//W3C//DTD SVG 1.1//EN" "http://www.w3.org/Graphics/SVG/1.1/DTD/svg11.dtd" >
<!--
2013-9-30: Created.
-->
<svg>
<metadata>
Created by iconfont
</metadata>
<defs>

<font id="iconfont" horiz-adv-x="1024" >
  <font-face
    font-family="iconfont"
    font-weight="500"
    font-stretch="normal"
    units-per-em="1024"
    ascent="896"
    descent="-128"
  />
    <missing-glyph />
    
    <glyph glyph-name="chongzhijiaofei" unicode="&#58905;" d="M951.7 607.9c0 30.7-24.9 55.6-55.6 55.6L118 663.5c-30.7 0-55.6-24.9-55.6-55.6l0-111.2 889.2 0L951.6 607.9zM951.7 441.2 62.5 441.2l0-444.6 0-4c0-28.5 23.1-51.6 51.6-51.6l4 0 632.1 0 149.9 0c28.5 0 51.6 23.1 51.6 51.6L951.7 137.8c0 0 0 0 0 0L951.7 441.2 951.7 441.2zM382.1 107.7 159.8 107.7c-15.3 0-27.8 12.4-27.8 27.8 0 15.4 12.4 27.8 27.8 27.8l222.3 0c15.3 0 27.8-12.4 27.8-27.8C409.9 120.2 397.5 107.7 382.1 107.7zM437.7 218.9 159.8 218.9c-15.3 0-27.8 12.4-27.8 27.8 0 15.3 12.4 27.8 27.8 27.8l277.9 0c15.3 0 27.8-12.4 27.8-27.8C465.5 231.3 453 218.9 437.7 218.9zM648.4 218.9l-55.6 0c-15.4 0-27.8 12.4-27.8 27.8 0 15.3 12.4 27.8 27.8 27.8l55.6 0c15.3 0 27.8-12.4 27.8-27.8C676.2 231.3 663.8 218.9 648.4 218.9z"  horiz-adv-x="1024" />

    
    <glyph glyph-name="dingwei" unicode="&#58960;" d="M605.486974 895.922213c-175.182226 4.004165-330.343626-147.15307-326.33946-320.333213 0-64.066643 45.046858-169.175978 112.116624-276.287396 68.070808-107.111418 118.122872-178.18535 174.181184-253.263446 10.010413-13.013537 23.02395-20.020826 40.041652-20.020826 16.016661 0 31.03228 8.00833 40.041652 20.020826 56.058312 75.078097 107.111418 146.152028 174.181184 253.263446 67.069766 107.111418 112.116624 212.220753 112.116624 276.287396C935.687594 748.769144 782.528277 899.926379 605.486974 895.922213L605.486974 895.922213 605.486974 895.922213 605.486974 895.922213zM628.510924 121.116255c-5.005206-7.007289-14.014578-11.011454-23.02395-11.011454-8.00833 0-18.018743 3.003124-22.022908 11.011454C433.307873 325.328678 339.209991 499.509863 339.209991 575.589001c0 72.074973 26.027074 134.139533 78.081221 185.192639 52.054147 51.053106 115.119748 77.080179 188.195762 77.080179 73.076014 0 136.141615-26.027074 188.195762-77.080179 53.055188-51.053106 79.082262-113.117666 79.082262-185.192639 0-39.04061-22.022908-98.102046-66.068725-179.186391C763.651498 315.318265 703.589021 224.223508 628.510924 121.116255L628.510924 121.116255 628.510924 121.116255 628.510924 121.116255zM603.484892-128.00002c-114.118707 0-220.229084 10.010413-295.30718 30.031239-40.041652 10.010413-71.073932 22.022908-93.09684 37.038528-27.028115 17.017702-42.043734 39.04061-42.043734 63.065601 0 31.03228 12.012495 54.05623 37.038528 71.073932 28.029156 18.018743 73.076014 28.029156 135.140574 29.030197l1.001041-43.044775c-53.055188 0-91.094757-9.009372-112.116624-22.022908-12.012495-8.00833-18.018743-20.020826-18.018743-35.036445 0-17.017702 32.033321-40.041652 103.107253-59.061436C394.267262-75.945873 488.365143-86.099292 603.484892-86.099292c110.114542 0 212.220753 11.011454 283.294685 29.030197 69.071849 17.017702 101.10517 40.041652 101.10517 59.061436 0 8.00833-4.004165 16.016661-13.013537 25.026032-10.010413 10.010413-42.043734 36.037486-111.115583 36.037486l-3.003124 0-1.001041 43.044775c31.03228 0 60.062477-4.004165 85.08851-13.013537 25.026032-9.009372 45.046858-21.021867 60.062477-36.037486 17.017702-17.017702 26.027074-35.036445 26.027074-55.057271 0-24.024991-14.014578-46.047899-41.042693-63.065601-22.022908-15.015619-53.055188-27.028115-93.09684-37.038528C822.569928-117.989607 718.60464-128.00002 603.484892-128.00002L603.484892-128.00002 603.484892-128.00002 603.484892-128.00002zM367.239147 82.075645c1.001041-12.012495-8.00833-22.022908-20.020826-23.02395l-32.033321-2.002083c-12.012495 0-22.022908 9.009372-22.022908 20.020826-1.001041 12.012495 8.00833 22.022908 20.020826 23.02395l32.033321 2.002083C356.227693 102.096471 367.239147 93.087099 367.239147 82.075645L367.239147 82.075645 367.239147 82.075645zM911.662603 82.075645c-1.001041-12.012495-11.011454-21.021867-22.022908-20.020826l-32.033321 1.001041c-12.012495 0-21.021867 10.010413-21.021867 22.022908 1.001041 12.012495 10.010413 21.021867 22.022908 20.020826l32.033321-1.001041C902.653231 104.098553 911.662603 94.08814 911.662603 82.075645L911.662603 82.075645 911.662603 82.075645zM517.824359 563.147488c0 46.476917 37.610551 84.087468 84.087468 84.087468 46.476917 0 84.087468-37.610551 84.087468-84.087468s-37.610551-84.087468-84.087468-84.087468C555.43491 479.060019 517.824359 516.670571 517.824359 563.147488L517.824359 563.147488zM517.824359 563.147488"  horiz-adv-x="1204" />

    
    <glyph glyph-name="chongzhi" unicode="&#58963;" d="M1012.094293 122.047147C1012.094293-9.475413 905.475413-116.094293 773.952853-116.094293 773.952853-116.094293 642.99008-128 512.013653-128 381.037227-128 250.047147-116.094293 250.047147-116.094293 118.524587-116.094293 11.905707-9.475413 11.905707 122.047147 11.905707 122.047147 0 253.269333 0 384.354987 0 515.222187 11.905707 645.952853 11.905707 645.952853 11.905707 777.475413 118.524587 884.094293 250.047147 884.094293 250.047147 884.094293 380.818773 896 511.699627 896 642.771627 896 773.952853 884.094293 773.952853 884.094293 905.475413 884.094293 1012.094293 777.475413 1012.094293 645.952853 1012.094293 645.952853 1024 514.771627 1024 383.699627 1024 252.818773 1012.094293 122.047147 1012.094293 122.047147ZM737.28 554.666667 734.69952 554.666667C717.2096 631.68512 602.917547 691.2 464.213333 691.2 317.412693 691.2 198.00064 624.544427 191.747413 541.013333L191.146667 541.013333 191.146667 199.68 191.747413 199.68C198.00064 116.16256 317.412693 49.493333 464.213333 49.493333 516.737707 49.493333 565.61664 58.1632 607.245653 72.936107 593.701547 81.3056 581.522773 91.613867 571.118933 103.560533 539.101867 95.232 502.797653 90.453333 464.213333 90.453333 336.022187 90.453333 232.106667 142.41792 232.106667 206.506667 232.106667 214.234453 233.690453 221.784747 236.571307 229.08928 285.477547 186.69568 369.13152 158.72 464.213333 158.72 489.92256 158.72 514.689707 160.918187 538.269013 164.74112 534.746453 177.534293 532.712107 190.928213 532.56192 204.813653 510.948693 201.48224 488.011093 199.68 464.213333 199.68 336.022187 199.68 232.106667 251.644587 232.106667 315.733333 232.106667 323.46112 233.690453 331.011413 236.571307 338.315947 285.477547 295.922347 369.13152 267.946667 464.213333 267.946667 493.841067 267.946667 522.130773 270.936747 548.836693 275.961173 558.639787 295.77216 572.361387 313.275733 589.182293 327.2704 553.08288 315.692373 510.266027 308.906667 464.213333 308.906667 336.022187 308.906667 232.106667 360.871253 232.106667 424.96 232.106667 432.687787 233.690453 440.23808 236.571307 447.542613 285.477547 405.149013 369.13152 377.173333 464.213333 377.173333 559.295147 377.173333 642.94912 405.149013 691.85536 447.542613 694.736213 440.23808 696.32 432.687787 696.32 424.96 696.32 400.889173 681.65632 378.538667 656.575147 359.99744 667.19744 362.263893 678.188373 363.52 689.493333 363.52 702.21824 363.52 714.533547 361.84064 726.38464 358.987093 725.6064 360.516267 724.650667 362.00448 723.817813 363.52L737.28 363.52 737.28 554.666667ZM703.146667 336.213333C623.970987 336.213333 559.786667 272.029013 559.786667 192.853333 559.786667 113.677653 623.970987 49.493333 703.146667 49.493333 782.322347 49.493333 846.506667 113.677653 846.506667 192.853333 846.506667 272.029013 782.322347 336.213333 703.146667 336.213333ZM703.146667 90.453333C646.59456 90.453333 600.746667 136.301227 600.746667 192.853333 600.746667 249.40544 646.59456 295.253333 703.146667 295.253333 759.698773 295.253333 805.546667 249.40544 805.546667 192.853333 805.546667 136.301227 759.698773 90.453333 703.146667 90.453333ZM749.800107 189.057707C757.9648 189.057707 764.586667 195.679573 764.586667 203.85792 764.586667 212.022613 757.9648 218.64448 749.800107 218.64448L728.159573 218.64448 750.646613 242.100907C756.3264 248.026453 756.3264 257.652053 750.646613 263.5776 744.953173 269.503147 735.737173 269.503147 730.057387 263.5776L702.99648 235.35616 675.935573 263.5776C670.255787 269.503147 661.039787 269.503147 655.36 263.5776 649.66656 257.652053 649.66656 248.026453 655.36 242.100907L677.84704 218.64448 656.493227 218.64448C648.328533 218.64448 641.706667 212.022613 641.706667 203.85792 641.706667 195.679573 648.328533 189.057707 656.493227 189.057707L688.974507 189.057707 688.974507 169.342293 656.493227 169.342293C648.328533 169.342293 641.706667 162.720427 641.706667 154.54208 641.706667 146.377387 648.328533 139.75552 656.493227 139.75552L688.974507 139.75552 688.974507 118.278827C688.974507 110.455467 695.309653 104.106667 703.146667 104.106667 710.98368 104.106667 717.318827 110.455467 717.318827 118.278827L717.318827 139.75552 749.800107 139.75552C757.9648 139.75552 764.586667 146.377387 764.586667 154.54208 764.586667 162.720427 757.9648 169.342293 749.800107 169.342293L717.318827 169.342293 717.318827 189.057707 749.800107 189.057707ZM464.213333 418.133333C336.022187 418.133333 232.106667 470.09792 232.106667 534.186667 232.106667 598.275413 336.022187 650.24 464.213333 650.24 592.40448 650.24 696.32 598.275413 696.32 534.186667 696.32 470.09792 592.40448 418.133333 464.213333 418.133333Z"  horiz-adv-x="1024" />

    
    <glyph glyph-name="2xuanzhong" unicode="&#58885;" d="M821.571103 695.204811C738.506269 778.255319 628.075157 823.993013 510.610862 823.993013c-117.478621 0-227.919966-45.741787-310.975591-128.788202C116.571461 612.148164 70.818417 501.693516 70.818417 384.199545c0-117.464295 45.753043-227.895407 128.817877-310.970474 83.055624-83.050508 193.495946-128.822994 310.975591-128.822994 117.463272 0 227.894384 45.771463 310.974567 128.822994 83.065857 83.075067 128.817877 193.506179 128.817877 310.970474C950.403307 501.66384 904.651286 612.148164 821.571103 695.204811L821.571103 695.204811 821.571103 695.204811zM752.090659 512.994909 452.580191 213.478302l0 0c-0.192382-0.188288-0.38067-0.322341-0.568958-0.51063-5.713119-5.442966-13.068643-8.184403-20.423145-8.184403-2.818185 0-5.637394 0.375553-8.377808 1.179872-0.024559 0.028653-0.053212 0.028653-0.077771 0.028653-1.291412 0.400113-2.524496 0.881067-3.762697 1.421372-3.164063 1.450025-6.169513 3.434216-8.775874 6.065136l-0.014326 0L268.8384 355.210303c-11.595083 11.595083-11.595083 30.386054 0 41.98216 11.594059 11.599176 30.386054 11.599176 41.980113 0l120.769574-120.764458 278.521434 278.547017c11.595083 11.594059 30.386054 11.594059 41.981137 0C763.656065 543.380964 763.656065 524.588969 752.090659 512.994909L752.090659 512.994909 752.090659 512.994909zM752.090659 512.994909"  horiz-adv-x="1024" />

    
    <glyph glyph-name="ziguanjilu" unicode="&#59023;" d="M610.345 391.455c-70.411 0-127.713-57.836-127.713-128.928 0-69.877 57.29-126.731 127.713-126.731 71.489 0 129.666 56.852 129.666 126.731 0 69.891-59.378 128.928-129.666 128.928zM689.712 313.194l-55.159-54.039h48.988v-16.575h-62.628v-17.476h40.523v-16.575h-40.523v-49.644h-16.575v49.644h-40.523v16.575h40.523v17.476h-62.628v16.575h48.988l-55.159 54.039c-3.086 3.359-2.853 8.629 0.506 11.714s8.629 2.853 11.714-0.506l64.881-63.556 64.881 63.556c3.086 3.359 8.356 3.59 11.714 0.506 3.331-3.086 3.564-8.356 0.478-11.714zM511.29 879.917c-270.308 0-490.223-219.915-490.223-490.223s219.915-490.223 490.223-490.223c270.308 0 490.223 219.915 490.223 490.223s-219.915 490.223-490.223 490.223zM416.467 94.222h-10.090v-0.082h-82.835c-33.874 0-61.44 27.566-61.44 61.44v468.213c0 33.874 27.566 61.44 61.44 61.44h345.443c30.652 0 55.569-22.364 60.157-51.965 0.478-1.666 0.082-150.787 0.082-150.787 0-11.264-8.437-20.057-19.701-20.057s-20.48 9.216-20.48 20.48v144.657h-0.123c-1.815 9.449-10.144 16.725-19.934 16.725h-345.443c-11.292 0-20.48-9.188-20.48-20.48v-468.227c0-11.292 9.188-20.48 20.48-20.48h17.053c0.273 0.014 0.518 0.082 0.791 0.082h75.093c11.264 0 20.48-9.216 20.48-20.48s-9.23-20.48-20.494-20.48zM411.989 327.011h-62.914c-7.878 0-14.336 9.216-14.336 20.48s6.445 20.48 14.336 20.48h62.914c7.878 0 14.336-9.216 14.336-20.48s-6.458-20.48-14.336-20.48zM426.325 240.353c0-11.264-6.445-20.48-14.336-20.48h-62.914c-7.878 0-14.336 9.216-14.336 20.48s6.445 20.48 14.336 20.48h62.914c7.878 0 14.336-9.216 14.336-20.48zM355.219 434.162c-11.264 0-20.48 9.216-20.48 20.48s9.216 20.48 20.48 20.48h157.136c11.264 0 20.48-9.216 20.48-20.48s-9.216-20.48-20.48-20.48h-157.136zM355.219 541.3c-11.264 0-20.48 9.216-20.48 20.48s9.216 20.48 20.48 20.48h281.026c11.264 0 20.48-9.216 20.48-20.48s-9.216-20.48-20.48-20.48h-281.026zM610.345 94.836c-93.007 0-168.673 75.23-168.673 167.691 0 93.676 75.667 169.888 168.673 169.888 92.487 0 170.626-77.796 170.626-169.888 0-92.474-76.541-167.691-170.626-167.691z"  horiz-adv-x="1024" />

    
    <glyph glyph-name="dianhua" unicode="&#59043;" d="M515.604-101.581c-269.053 0-487.942 218.891-487.942 487.942s218.891 487.956 487.942 487.956 487.942-218.891 487.942-487.942-218.891-487.956-487.942-487.956zM515.604 833.359c-246.47 0-446.982-200.527-446.982-446.982s200.527-446.982 446.982-446.982 446.982 200.527 446.982 446.982-200.513 446.982-446.982 446.982zM671.157 118.156c-172.769 0-429.534 274.050-429.534 417.997 0 57.549 77.019 118.429 118.429 118.429 43.787 0 118.415-126.279 118.415-152.986 0-18.814-8.124-32.126-14.637-42.831-5.066-8.301-8.055-13.489-8.383-19.47 6.718-21.012 85.333-99.396 107.534-107.287 5.899 0.518 13.366 4.41 21.259 8.519 12.37 6.445 27.771 14.473 46.586 14.473 30.078 0 158.748-83.927 158.748-118.429 0-65.604-64.771-118.415-118.415-118.415zM358.918 613.567c-19.129-1.679-76.336-43.663-76.336-77.414 0-123.262 240.026-377.037 388.574-377.037 32.809 0 74.861 35.348 77.346 73.878-14.527 20.508-98.796 78.698-118.21 81.073-8.26-0.028-17.012-4.588-27.13-9.858-11.892-6.198-25.355-13.216-41.478-13.216-35.772 0-147.237 111.452-147.237 147.223 0 18.268 7.973 31.348 14.39 41.861 5.284 8.684 8.383 14.063 8.629 20.617-4.602 20.876-58.272 104.448-78.547 112.873z"  horiz-adv-x="1024" />

    
    <glyph glyph-name="zuo" unicode="&#58955;" d="M512.000512 817.342546c-243.812935 0-441.458387-194.012715-441.458387-433.342546s197.646476-433.342546 441.458387-433.342546c243.809865 0 441.456341 194.012715 441.456341 433.342546S755.810377 817.342546 512.000512 817.342546zM705.13523 356.915132 413.059082 356.915132l113.714901-111.615077c10.776438-10.579963 10.776438-27.726481 0-38.306444-10.776438-10.578939-28.247344-10.578939-39.016619 0l-156.078755 153.209404c-6.619768 6.500041-8.668427 15.385409-7.15905 23.796986-1.509377 8.411577 0.539282 17.297968 7.15905 23.795962l156.078755 153.209404c10.768251 10.579963 28.240181 10.579963 39.016619 0 10.776438-10.570753 10.776438-27.725458 0-38.298258L413.059082 411.083845l292.076148 0c15.244192 0 27.593452-12.123109 27.593452-27.083845C732.728682 369.04745 720.380446 356.915132 705.13523 356.915132z"  horiz-adv-x="1024" />

    
    <glyph glyph-name="xuanzhong" unicode="&#58918;" d="M512 832C264.576 832 64 631.424 64 384s200.576-448 448-448 448 200.576 448 448S759.424 832 512 832z m271.529-719.529c-35.286-35.287-76.359-62.983-122.078-82.321C614.15 10.144 563.868 0 512 0c-51.868 0-102.15 10.144-149.451 30.15-45.719 19.337-86.792 47.034-122.078 82.321-35.287 35.286-62.983 76.359-82.321 122.078C138.144 281.85 128 332.132 128 384s10.144 102.15 30.15 149.451c19.337 45.719 47.034 86.792 82.321 122.078 35.286 35.287 76.359 62.983 122.078 82.321C409.85 757.856 460.132 768 512 768c51.868 0 102.15-10.144 149.451-30.15 45.719-19.337 86.792-47.034 122.078-82.321 35.287-35.286 62.983-76.359 82.321-122.078C885.856 486.15 896 435.868 896 384s-10.144-102.15-30.15-149.451c-19.338-45.718-47.034-86.792-82.321-122.078zM707.576 533.474L448.465 274.363 316.424 406.404c-12.497 12.497-32.758 12.497-45.255 0s-12.497-32.758 0-45.255l154.668-154.668c6.249-6.249 14.438-9.373 22.627-9.373s16.379 3.124 22.627 9.373L752.83 488.219c12.497 12.497 12.497 32.758 0 45.255-12.496 12.497-32.758 12.497-45.254 0z"  horiz-adv-x="1024" />

    
    <glyph glyph-name="you1" unicode="&#58909;" d="M389.115 125.78c5.305 0 10.604 2.048 14.614 6.133l203.42 207.234c12.096 12.322 18.744 28.62 18.717 45.887-0.027 17.268-6.724 33.545-18.858 45.83l-203.323 205.864c-7.946 8.046-20.912 8.129-28.959 0.179-8.047-7.947-8.128-20.913-0.18-28.96l203.322-205.864c9.312-9.428 9.336-24.792 0.053-34.249l-203.418-207.233c-7.923-8.071-7.802-21.036 0.269-28.958 3.681-3.626 8.736-5.865 14.315-5.865 0.010 0 0.020 0 0.029 0z"  horiz-adv-x="1024" />

    
    <glyph glyph-name="up" unicode="&#58880;" d="M81.953 178.176c12.288-12.288 31.328-13.024 43.008-2.016l369.984 369.952c15.072 15.872 19.008 15.808 34.817 0l369.952-369.952c11.68-11.039 30.72-10.272 43.008 2.016 12.512 12.512 13.216 32.032 1.6 43.68l-410.944 410.944c-5.056 5.056-11.648 7.328-18.464 7.744h-5.152c-6.816-0.448-13.408-2.72-18.464-7.744l-410.944-410.944c-11.585-11.648-10.88-31.2 1.6-43.68z"  horiz-adv-x="1024" />

    
    <glyph glyph-name="icon_kefu" unicode="&#58930;" d="M161.1 426.3c21.8-21.2 48.1-32.7 78.8-32.7h4.8V609.9h-13.1c25.1 60.1 63.5 100.5 115.2 134S455.9 795 519 795s120.7-17.9 172.6-51.5c52-33.5 90.5-73.5 115.6-133.6h-9.5v-214.7c36.1 0 57.1 10.6 78.9 31.9 21.8 21.2 32.8 46.9 32.8 77.1 0 20.1-5.1 38.7-15.5 55.7-10.3 17-24.1 30.3-41.5 39.8C828.4 667.9 785.9 723.6 725 766.9S595.6 831.8 519.3 831.8 374.5 810.3 313.6 767.3c-60.9-43-103.3-98.9-127.4-167.6-17.9-9.5-32-22.8-42.3-39.8-10.3-17-15.5-35.6-15.5-55.7 0-30.2 10.9-56.7 32.7-77.9zM519 722c-66.5 0-123.3-23-170.5-69.1-47.2-46.1-70.8-101.8-70.8-167.2s23.6-121.1 70.8-167.2c47.2-46.1 104.2-69.1 170.9-69.1s123.6 23 170.5 69.1 70.4 101.8 70.4 167.2-23.5 121.1-70.4 167.2S586.1 722 519 722zM899 150.1c-33.8 50.6-80 90.4-138.7 119.4-32.4-29-69.3-51.8-110.6-68.3s-84.9-24.7-130.7-24.7-89.2 8.1-130.3 24.3c-41 16.2-77.8 39.1-110.2 68.7-58.1-29.6-103.8-69.5-137-119.8s-49.8-108.9-49.8-176c295-49 581.6-52.3 858 0 0 67-16.9 125.8-50.7 176.4z"  horiz-adv-x="1024" />

    
    <glyph glyph-name="xiugai" unicode="&#58958;" d="M362.424868 339.509716c-0.552585-0.711198-1.111311-1.452071-1.358951-2.349511l-42.905182-157.295465c-2.50403-9.157567 0.064468-19.024286 6.839779-25.980721 5.072529-4.951779 11.755742-7.673773 18.865673-7.673774 2.350534 0 4.706185 0.277316 7.023973 0.89744l156.178016 42.59512c0.249687 0 0.375553-0.214894 0.558725-0.214894 1.794879 0 3.560082 0.647753 4.89038 2.01182L930.134681 609.061872c12.406564 12.415774 19.209504 29.336142 19.209504 47.746444 0 20.862143-8.846482 41.709961-24.342408 57.158814l-39.440268 39.503713c-15.46625 15.496949-36.346813 24.360827-57.195653 24.360827-18.400069 0-35.325553-6.808056-47.76077-19.195178l-417.560095-417.674704c-0.433882-0.394996-0.306992-0.986467-0.620123-1.452072zM889.273041 649.953188l-41.476647-41.449018-67.248613 68.313875 40.896432 40.894386c6.463202 6.491855 18.99154 5.547343 26.412556-1.90335l39.466874-39.503712c4.118807-4.113691 6.468318-9.586332 6.468318-14.998599-0.028653-4.444219-1.610684-8.463766-4.51892-11.353582z m-452.577632-316.999794l301.347302 301.363675 67.281359-68.360947-300.787554-300.777321-67.841107 67.774593zM381.788891 210.768587l21.779026 79.93147 58.090023-58.091046-79.869049-21.840424z m529.597797 272.605701c-15.634072 0-28.454052-12.712533-28.510334-28.558429v-385.028167c0-20.196994-16.398482-36.594453-36.623106-36.594453H194.92397c-20.191878 0-36.654828 16.396435-36.654828 36.594453V698.232774c0 20.209274 16.457834 36.622082 36.654828 36.622082H614.417089c15.721053 0 28.484751 12.772908 28.484752 28.498055 0 15.690354-12.763698 28.480658-28.484752 28.480658H190.577988c-49.223075 0-89.287559-40.031738-89.287559-89.287559v-637.107369c0-49.250704 40.064484-89.270163 89.287559-89.270163h659.986449c49.254797 0 89.302909 40.015366 89.302909 89.270163V454.999031c-0.061398 15.662725-12.846586 28.375258-28.480658 28.375257zM850.564437-27.92577H190.577988c-51.489698 0-93.380784 41.882899-93.380784 93.363387V702.544986c0 51.490721 41.891086 93.380784 93.380784 93.380784H614.417089c17.96414 0 32.577976-14.612813 32.577976-32.573883 0-17.971303-14.613836-32.591279-32.577976-32.591279H194.92397c-17.954931 0-32.561603-14.592346-32.561604-32.528857v-628.444059c0-17.921161 14.606673-32.501228 32.561604-32.501228h651.328255c17.936511 0 32.529881 14.580067 32.529881 32.501228v385.02919c0.064468 18.011212 14.690584 32.651654 32.603559 32.651654 17.891486 0 32.504298-14.558577 32.573882-32.452109v-389.577786c0.001023-51.481512-41.895179-93.364411-93.39511-93.364411zM190.577988 787.739321c-46.975894 0-85.194334-38.21844-85.194334-85.194335v-637.107369c0-46.966685 38.21844-85.176938 85.194334-85.176938h659.986449c46.984081 0 85.209684 38.210253 85.209684 85.176938V454.999031c-0.052189 13.381775-10.992355 24.282033-24.387433 24.282032-13.414521 0-24.367991-10.981099-24.417109-24.47953v-385.013841c0-22.434965-18.266016-40.687678-40.716331-40.687678H194.92397c-22.468734 0-40.748053 18.252713-40.748053 40.687678V698.232774c0 22.450315 18.279319 40.715307 40.748053 40.715307H614.417089c13.450337 0 24.391527 10.948353 24.391527 24.40483 0 13.447267-10.94119 24.387433-24.391527 24.387433H190.577988z m153.288199-645.621277c-8.1711 0-15.885805 3.13848-21.723768 8.838296l-0.073678 0.072654c-7.722892 7.9296-10.732435 19.392676-7.855921 29.915334l42.904159 157.293419c0.379647 1.379417 1.072425 2.448772 1.660826 3.240811 0.183172 0.653893 0.545422 1.587148 1.417279 2.422165l417.516092 417.629679c13.205766 13.153578 31.193443 20.394493 50.655703 20.394493 21.976524 0 43.878346-9.317203 60.092633-25.562189l39.440268-39.503712c16.22759-16.179494 25.538653-38.069037 25.538653-60.051701 0-19.485797-7.248078-37.46938-20.407796-50.639331L515.411191 188.605821c-2.007727-2.056845-4.78498-3.210112-7.78429-3.210111-0.223081 0-0.433882 0.017396-0.630357 0.046048l-155.028842-42.281988a31.358195 31.358195 0 0 0-8.101515-1.041726z m-15.96767 14.658861a22.786982 22.786982 0 0 1 15.96767-6.472411c2.076288 0 4.084015 0.254803 5.966898 0.758269l156.685575 42.734291h0.548492c0.442068 0 0.836041-0.064468 1.175779-0.15452a2.537799 2.537799 0 0 1 1.343601 0.717338l417.653215 417.596933c11.614525 11.622712 18.011212 27.552519 18.011213 44.851511 0 19.822464-8.43409 39.599903-23.139 54.260811l-39.447431 39.510876c-14.688537 14.718213-34.480302 23.159466-54.298673 23.159466-17.281595 0-33.217543-6.393617-44.871977-18.002003L366.484324 338.612277c-0.12996-0.406253-0.329505-0.890276-0.661056-1.385557l-0.164752-0.228197c-0.188288-0.242524-0.580215-0.748037-0.648777-0.938372l-42.900065-157.271929c-2.111081-7.723915 0.106424-16.151865 5.788843-22.011317z m48.056505 48.152697l25.518187 93.654006 68.062142-68.064188-93.580329-25.589818z m29.707603 77.886904l-18.039865-66.208934 66.157769 18.092054-48.117904 48.11688z m98.874915-23.425525l-73.633021 73.561389L738.065224 640.129448l73.024153-74.195839-306.551837-306.542628z m-62.052265 73.563436l62.050218-61.98882 295.022247 295.014061-61.538565 62.526055-295.5339-295.551296zM847.771835 602.693838l-72.990385 74.147743 43.76783 43.766807c3.548826 3.563152 8.615215 5.529947 14.260795 5.529946 6.696516 0 13.237489-2.711761 17.945721-7.439436l39.46278-39.498596c4.870938-4.863774 7.665587-11.386328 7.665587-17.891485-0.034792-5.569856-2.068102-10.624988-5.727445-14.258749l-44.384883-44.35623z m-61.458747 74.101695l61.505819-62.48103 38.560224 38.533618c2.121314 2.109034 3.298116 5.118578 3.318582 8.485255 0 4.322445-1.919722 8.732895-5.266957 12.076036l-39.470967 39.506783c-3.140527 3.15383-7.68196 5.034666-12.149714 5.034666-3.451612 0-6.459109-1.110287-8.464789-3.1262l-38.032198-38.029128z"  horiz-adv-x="1024" />

    
    <glyph glyph-name="liebiao" unicode="&#58881;" d="M472.064 496.128c0-46.592-38.4-84.992-84.992-84.992h-302.08c-46.592 0-84.992 38.4-84.992 84.992v314.88c0 46.592 38.4 84.992 84.992 84.992h302.08c46.592 0 84.992-38.4 84.992-84.992v-314.88zM472.064-43.008c0-46.592-38.4-84.992-84.992-84.992h-302.08c-46.592 0-84.992 38.4-84.992 84.992v314.88c0 46.592 38.4 84.992 84.992 84.992h302.08c46.592 0 84.992-38.4 84.992-84.992v-314.88zM1024 496.128c0-46.592-38.4-84.992-84.992-84.992h-302.08c-46.592 0-84.992 38.4-84.992 84.992v314.88c0 46.592 38.4 84.992 84.992 84.992h302.08c46.592 0 84.992-38.4 84.992-84.992v-314.88zM1024-43.008c0-46.592-38.4-84.992-84.992-84.992h-302.08c-46.592 0-84.992 38.4-84.992 84.992v314.88c0 46.592 38.4 84.992 84.992 84.992h302.08c46.592 0 84.992-38.4 84.992-84.992v-314.88z"  horiz-adv-x="1024" />

    
    <glyph glyph-name="sousuo1" unicode="&#59000;" d="M741.216 200.03200000000004l192.896-192.864a31.968 31.968 0 1 0-45.28-45.28L695.968 154.784A382.464 382.464 0 0 0 448 64C235.936 64 64 235.93600000000004 64 448S235.936 832 448 832s384-171.936 384-384c0-94.528-34.144-181.056-90.784-247.968zM448 128c176.736 0 320 143.264 320 320S624.736 768 448 768 128 624.736 128 448s143.264-320 320-320z"  horiz-adv-x="1024" />

    
    <glyph glyph-name="you" unicode="&#58888;" d="M287.744-38.4c13.824-14.336 36.864-14.336 51.2 0l397.312 393.728c7.168 7.168 10.752 16.384 10.752 25.6 0 9.216-3.584 18.432-10.24 25.6 0 0-0.512 0-0.512 0.512-0.512 0.512-0.512 1.536-1.536 2.048l-393.728 397.312c-13.824 14.336-36.864 14.336-51.2 0-14.336-13.824-14.336-36.864 0-50.688l370.688-373.76-372.224-368.64c-14.336-14.336-14.336-37.376-0.512-51.712z"  horiz-adv-x="1024" />

    
    <glyph glyph-name="gerenxinxi" unicode="&#58922;" d="M755.19999969 620.80000031c0-134.4-108.79999969-243.19999969-243.19999969-243.20000062-134.4 0-243.19999969 108.79999969-243.19999969 243.20000062C268.80000031 755.20000031 377.6 864 512 864c134.4 0 243.19999969-108.79999969 243.19999969-243.19999969zM956.79999969 92.80000030999997c0-131.20000031-198.40000031-188.80000031-447.99999938-188.80000031C262.4-96 63.99999969-38.39999999999998 63.99999969 92.80000030999997c0 131.20000031 198.40000031 236.80000031 444.80000062 236.79999938 249.6 0 448.00000031-105.6 447.99999938-236.79999938z"  horiz-adv-x="1024" />

    
    <glyph glyph-name="yingyeshijian" unicode="&#58944;" d="M512 826.181818c-242.036364 0-442.181818-200.145455-442.181818-442.181818s200.145455-442.181818 442.181818-442.181818 442.181818 200.145455 442.181818 442.181818-200.145455 442.181818-442.181818 442.181818z m0-837.818182c-218.763636 0-395.636364 176.872727-395.636364 395.636364S293.236364 779.636364 512 779.636364s395.636364-176.872727 395.636364-395.636364-176.872727-395.636364-395.636364-395.636364zM488.727273 640h46.545454v-279.272727h-46.545454zM535.272727 360.727273h232.727273v-46.545455h-232.727273zM488.727273 360.727273h46.545454v-46.545455h-46.545454z"  horiz-adv-x="1024" />

    
    <glyph glyph-name="list" unicode="&#58882;" d="M348.522712 339.087719H116.236396A112.819649 112.819649 0 0 1 0.003413 226.447719v-236.418245A117.131228 117.131228 0 0 1 116.236396-128H348.522712a118.74807 118.74807 0 0 1 118.568421 116.412632v233.543859A120.185263 120.185263 0 0 1 348.522712 339.087719zM395.231484-15.539649000000054A40.241404 40.241404 0 0 0 354.810431-56.14035100000001H112.284115A40.241404 40.241404 0 0 0 71.863062-15.539649000000054V226.80701799999997A40.241404 40.241404 0 0 0 112.284115 267.22807h242.526316A40.241404 40.241404 0 0 0 395.231484 226.80701799999997zM614.583062 734.315789h423.612632A38.085614 38.085614 0 0 1 1077.89815 770.245614a38.085614 38.085614 0 0 1-39.702456 35.929825H614.583062A38.085614 38.085614 0 0 1 574.880606 770.245614a38.085614 38.085614 0 0 1 39.702456-35.929825zM348.522712 896H116.236396A117.131228 117.131228 0 0 1 0.003413 777.9705260000001v-236.418245a111.382456 111.382456 0 0 1 116.232983-111.202807H348.522712a118.74807 118.74807 0 0 1 118.568421 116.412631v233.54386A118.927719 118.927719 0 0 1 348.522712 896zM395.231484 541.3726320000001A40.241404 40.241404 0 0 0 354.810431 500.77193H112.284115A40.241404 40.241404 0 0 0 71.863062 541.3726320000001V783.898947A40.241404 40.241404 0 0 0 112.284115 824.140351h242.526316A40.241404 40.241404 0 0 0 395.231484 784.0785960000001zM614.403413 518.736842h423.792281A37.546667 37.546667 0 0 1 1077.89815 554.666667a37.905965 37.905965 0 0 1-39.702456 35.929824H614.403413a37.905965 37.905965 0 0 1-39.522807-35.929824 37.905965 37.905965 0 0 1 39.522807-35.929825z m423.792281-269.473684H614.583062a35.929825 35.929825 0 1 1 0-71.859649h423.612632a35.929825 35.929825 0 1 1 0 71.859649z m0-215.578947H614.403413a35.929825 35.929825 0 1 1 0-71.85965h423.792281a35.929825 35.929825 0 1 1 0 71.85965z"  horiz-adv-x="1077" />

    
    <glyph glyph-name="kefu" unicode="&#58897;" d="M521.5466666666666 780.7466666666667C283.14666666666665 780.7466666666667 92.53333333333336 617.8666666666667 92.53333333333336 419.2533333333334c0-105.06666666666666 53.333333333333336-202.45333333333335 145.06666666666666-269.8666666666667 3.6266666666666665-2.6666666666666665 5.653333333333333-7.039999999999999 5.333333333333333-11.520000000000001l-15.36-137.38666666666668c-0.8533333333333334-11.413333333333332 12.373333333333333-18.346666666666664 21.333333333333332-11.2l152.64 76.69333333333334c2.9866666666666664 2.3466666666666667 6.933333333333334 3.3066666666666666 10.666666666666666 2.56 37.333333333333336-7.1466666666666665 71.57333333333332-10.773333333333333 109.22666666666667-10.773333333333333 238.29333333333332 0 429.0133333333333 162.88 429.0133333333333 361.4933333333333S759.8400000000001 780.7466666666667 521.5466666666666 780.7466666666667m214.93333333333334-472.1066666666667c-0.32-0.32-0.64-0.7466666666666666-0.96-1.1733333333333333-47.68-71.14666666666668-122.98666666666668-110.61333333333333-206.07999999999998-110.61333333333333-83.2 0-162.34666666666666 39.46666666666667-206.07999999999998 110.50666666666666-0.32 0.4266666666666667-0.5333333333333333 0.8533333333333334-0.7466666666666666 1.3866666666666667-3.6266666666666665 7.8933333333333335-3.4133333333333336 19.413333333333334 4.266666666666667 27.09333333333333 7.573333333333332 7.573333333333332 18.88 4.266666666666667 26.773333333333333-2.9866666666666664 0.64-0.64 1.28-1.3866666666666667 1.8133333333333332-2.1333333333333333 39.78666666666666-58.88 102.93333333333334-90.24 173.97333333333333-90.24 71.46666666666667 0 135.04 35.733333333333334 174.72 95.36 3.5199999999999996 6.933333333333334 17.279999999999998 11.093333333333334 24.426666666666666 7.466666666666667 1.92-0.96 5.653333333333333-2.453333333333333 7.253333333333333-3.9466666666666668 11.413333333333332-9.813333333333333 7.466666666666667-23.253333333333334 0.64-30.72"  horiz-adv-x="1024" />

    
    <glyph glyph-name="shouye" unicode="&#58883;" d="M949.408 460.832L871.68 528.4v87.452c0 17.253-13.962 31.233-31.211 31.233s-31.21-13.98-31.21-31.233v-33.19L532.967 822.837l-0.049 0.039a31.01 31.01 0 0 1-6.487 4.34l-0.007 0.003c-0.422 0.211-0.849 0.41-1.279 0.6-0.046 0.02-0.092 0.043-0.139 0.064a32.152 32.152 0 0 1-1.154 0.473c-0.094 0.037-0.187 0.078-0.282 0.114-0.342 0.13-0.687 0.248-1.033 0.365-0.14 0.048-0.278 0.1-0.419 0.146-0.309 0.1-0.62 0.189-0.933 0.279-0.176 0.051-0.352 0.107-0.529 0.156-0.299 0.08-0.6 0.15-0.9 0.223-0.189 0.045-0.376 0.095-0.564 0.136-0.315 0.07-0.634 0.127-0.95 0.186-0.175 0.033-0.348 0.07-0.52 0.1-0.365 0.062-0.73 0.112-1.096 0.16-0.125 0.017-0.25 0.04-0.377 0.055a30.31 30.31 0 0 1-1.361 0.133c-0.037 0.003-0.075 0.008-0.112 0.01a31.19 31.19 0 0 1-14.536-2.407c-0.052-0.022-0.104-0.042-0.155-0.065-0.33-0.143-0.657-0.297-0.984-0.452-0.15-0.07-0.3-0.137-0.448-0.211-0.237-0.118-0.47-0.244-0.706-0.367-0.234-0.123-0.469-0.244-0.7-0.373-0.158-0.088-0.313-0.183-0.469-0.274-0.304-0.177-0.607-0.355-0.906-0.542-0.096-0.06-0.19-0.125-0.285-0.187-0.352-0.226-0.702-0.458-1.046-0.7-0.06-0.043-0.12-0.088-0.18-0.13-0.37-0.265-0.738-0.537-1.098-0.82-0.055-0.042-0.108-0.087-0.162-0.13-0.357-0.283-0.709-0.571-1.054-0.871l-0.065-0.053-286.475-249.024V605.44c0 17.254-13.962 31.234-31.211 31.234-17.25 0-31.211-13.98-31.211-31.234v-83.29c0-0.844 0.043-1.677 0.108-2.504l-67.66-58.814c-13.02-11.316-14.398-31.041-3.08-44.054 6.176-7.107 14.853-10.747 23.587-10.747a31.09 31.09 0 0 1 20.477 7.666l395.958 344.191 395.958-344.19a31.078 31.078 0 0 1 20.476-7.667c8.724 0 17.407 3.64 23.578 10.747 11.327 13.014 9.944 32.738-3.08 44.054zM845.634 411.328c-17.25 0-31.234-13.98-31.234-31.233V69.79999999999995c0-39.133-26.928-72.197-58.807-72.197H269.355c-31.88 0-58.808 33.064-58.808 72.197V380.09400000000005c0 17.254-13.985 31.233-31.233 31.233-17.249 0-31.233-13.98-31.233-31.233V69.79999999999995c0-74.251 54.405-134.665 121.275-134.665h486.237c66.87 0 121.275 60.414 121.275 134.665V380.09400000000005c0 17.254-13.986 31.234-31.234 31.234zM390.587 490.216c-17.25 0-31.234-13.98-31.234-31.233v-30.471c0-17.254 13.986-31.234 31.234-31.234 17.249 0 31.233 13.98 31.233 31.234v30.47c0 17.254-13.984 31.234-31.233 31.234zM634.36 490.216c-17.248 0-31.233-13.98-31.233-31.233v-30.471c0-17.254 13.986-31.234 31.234-31.234 17.249 0 31.233 13.98 31.233 31.234v30.47c0.001 17.254-13.984 31.234-31.233 31.234zM589.27 349.155c-14.54 9.314-33.842 5.053-43.15-9.455-0.122-0.193-13.38-19.45-33.969-19.45-20.008 0-32.454 18.138-33.276 19.378-9.176 14.418-28.27 18.81-42.835 9.75-14.65-9.099-19.145-28.356-10.045-43.007 11.215-18.047 41.98-48.59 86.157-48.59 43.959 0 75.1 30.309 86.574 48.224 9.302 14.53 5.068 33.848-9.456 43.15z"  horiz-adv-x="1024" />

    
    <glyph glyph-name="zuo1" unicode="&#58886;" d="M288.266667 419.333333H1125.333333c23.733333 0 43.066667-19.333333 43.066667-43.066666 0-23.733333-19.333333-43.066667-43.066667-43.066667H288.266667c-23.733333 0-43.066667 19.333333-43.066667 43.066667 0 23.733333 19.333333 43.066667 43.066667 43.066666z m0 0M540.4 747.733333c10.533333 0 21.2-3.866667 29.466667-11.6 17.333333-16.266667 18.266667-43.466667 2-60.8L297.6 382.933333 571.866667 90.666667c16.266667-17.333333 15.466667-44.533333-2-60.8-17.333333-16.266667-44.533333-15.466667-60.8 2L207.2 353.466667c-15.6 16.533333-15.6 42.4 0 58.933333l301.866667 321.733333c8.4 9.066667 19.866667 13.6 31.333333 13.6z m0 0"  horiz-adv-x="1365" />

    
    <glyph glyph-name="weixin" unicode="&#58912;" d="M669.3 526.6c9.8 0 19.6 0 29.4-1.6C671 650.8 536.9 744 383.2 744 211.6 744 71 626.3 71 479.2c0-85 45.8-156.9 124.2-210.9l-31.1-93.2L273.6 229c39.2-8.2 70.3-16.3 109.5-16.3 9.8 0 19.6 0 31.1 1.6-6.5 21.3-9.8 42.5-9.8 65.4 0.1 135.7 116.2 246.9 264.9 246.9z m-168.4 85c24.5 0 39.2-16.3 39.2-39.2 0-22.9-16.3-39.2-39.2-39.2-24.5 0-47.4 16.4-47.4 39.2 0 24.5 24.6 39.2 47.4 39.2z m-216.3-73.1c-24.7 0-47.8 16.2-47.8 38.8 0 24.3 24.7 38.8 47.8 38.8s39.5-16.2 39.5-38.8c0.1-22.7-16.4-38.8-39.5-38.8zM953.8 283c0 125.9-124.2 227.2-264.8 227.2-148.8 0-266.5-103-266.5-227.2 0-125.9 117.7-227.2 266.5-227.2 31.1 0 62.1 8.2 93.2 16.3l85-47.4-22.9 78.5c62.1 47.4 109.5 109.5 109.5 179.8z m-351.5 39.2c-14.7 0-31.1 14.7-31.1 31.1 0 14.7 16.3 31.1 31.1 31.1 22.9 0 39.2-16.3 39.2-31.1 0-16.4-14.7-31.1-39.2-31.1z m178 7.6c-14.8 0-31.3 14.6-31.3 30.7 0 14.6 16.5 30.7 31.3 30.7 23.1 0 39.5-16.2 39.5-30.7 0-16.2-16.4-30.7-39.5-30.7z"  horiz-adv-x="1024" />

    
    <glyph glyph-name="shoucang" unicode="&#58884;" d="M707.584 802.816c-77.312 0-148.992-38.912-196.608-102.912-47.104 64-119.296 102.912-196.608 102.912-139.264 0-252.416-123.904-252.416-275.968 0-90.624 40.448-154.624 73.216-205.824C229.888 172.03200000000004 468.48-12.799999999999955 478.72-20.480000000000018c9.728-7.68 20.992-11.264 32.256-11.264s22.528 3.584 32.256 11.264c10.24 7.68 248.32 193.024 343.552 341.504 32.768 51.2 73.216 115.2 73.216 205.824 0 152.064-113.152 275.968-252.416 275.968z"  horiz-adv-x="1024" />

    
    <glyph glyph-name="SVG_daifukuan-miaobian" unicode="&#58904;" d="M676.119273 411.927273a220.066909 220.066909 0 1 1 220.066909-220.066909A220.299636 220.299636 0 0 1 676.119273 411.927273z m0-384.232728a164.212364 164.212364 0 1 0 164.212363 164.212364 164.398545 164.398545 0 0 0-164.212363-164.445091zM509.44 486.772364a27.927273 27.927273 0 0 1 0 55.854545H459.217455l65.163636 77.498182a27.927273 27.927273 0 1 1-42.775273 35.886545l-79.127273-94.161454-78.754909 93.835636a27.927273 27.927273 0 0 1-42.775272-35.886545l64.744727-77.172364H291.002182a27.927273 27.927273 0 1 1 0-55.854545H372.363636v-34.304H291.002182a27.927273 27.927273 0 0 1 0-55.854546H372.363636v-85.457454a27.927273 27.927273 0 0 1 55.854546 0v85.457454h81.268363a27.927273 27.927273 0 0 1 0 55.854546H428.218182v34.304zM183.668364 122.368V719.406545A21.178182 21.178182 0 0 0 204.8 740.538182h500.503273a21.178182 21.178182 0 0 0 21.131636-21.131637v-299.52h55.854546V719.406545a77.079273 77.079273 0 0 1-76.986182 76.986182H204.8a77.079273 77.079273 0 0 1-76.986182-76.986182v-597.038545A77.079273 77.079273 0 0 1 204.8 45.335273h250.274909v55.854545H204.8a21.178182 21.178182 0 0 0-21.131636 21.178182zM756.084364 190.976H688.872727v86.853818a27.927273 27.927273 0 0 1-55.854545 0v-114.827636a27.927273 27.927273 0 0 1 27.927273-27.927273h95.185454a27.927273 27.927273 0 0 1 0 55.854546z"  horiz-adv-x="1024" />

    
    <glyph glyph-name="daishouhuo" unicode="&#59051;" d="M114.7 439.7V626.6c0 37.9 30.8 68.8 68.8 68.8h336.4c37.9 0 68.8-30.9 68.8-68.8v-443.7H402c-17.6 41.4-58.7 70.5-106.5 70.5s-88.9-29.1-106.5-70.5h-5.4c-37.9 0-68.8 30.9-68.8 68.8v35.9m-50.8 0v-35.9c0-64.7 51.6-117.5 115.9-119.4C182.8 71 233.5 22 295.5 22c62 0 112.7 49 115.6 110.2h249.3C663.3 70.9 714 22 776 22s112.7 49 115.6 110.2H960V376c0 31.9-10.9 63.1-30.8 88.1L839 577.2c-19.7 24.7-49.1 38.8-80.6 38.8h-119v10.6c0 65.9-53.6 119.5-119.5 119.5H183.5C117.6 746 64 692.4 64 626.6v-186.9m646.9-302c0 35.9 29.2 65 65 65 35.9 0 65-29.2 65-65 0-35.9-29.2-65-65-65s-65 29.1-65 65z m-41.5 45.2h-30.1V565.3h119c16.1 0 31-7.2 41-19.8l90.2-113.1c12.7-16 19.8-36 19.8-56.4v-193.1h-26.8c-17.6 41.4-58.7 70.5-106.5 70.5s-88.9-29.1-106.6-70.5z m-374 19.8c35.9 0 65-29.2 65-65 0-35.9-29.2-65-65-65s-65 29.2-65 65 29.2 65 65 65z m407.8 349.4c-14 0-25.3-11.3-25.3-25.3V378h148.8c14 0 25.3 11.3 25.3 25.3s-11.3 25.3-25.3 25.3h-98.1v98.1c0 14-11.4 25.4-25.4 25.4z"  horiz-adv-x="1024" />

    
    <glyph glyph-name="xia" unicode="&#58887;" d="M955.358 615.023c0 9.028-2.904 18.056-8.712 24.948-11.605 13.783-30.43 13.783-42.046 0L528.232 193.35400000000004c-12.748-15.128-33.5-15.12800001-46.248 0L117.6 625.762c-11.605 13.783-30.43999999 13.783-42.046 0-11.61600001-13.783-11.616-36.112 0-49.896L439.93799999 143.45799999999997c35.93-42.649 94.411-42.649 130.34 0l376.36800001 446.616c5.808 6.892 8.712 15.921 8.712 24.949z"  horiz-adv-x="1024" />

    
    <glyph glyph-name="zuo11" unicode="&#59064;" d="M660.383 53.79899999999998l288.807 288.807c22.558 22.555 22.558 59.13 0 81.686l-288.807 288.808c-22.559 22.553-59.131 22.553-81.686 0-22.56-22.559-22.56-59.131 0-81.68599999l190.204-190.20300001-669.214 0c-31.902 0-57.762-25.861-57.762-57.762s25.858-57.762 57.762-57.762l669.21399999 0-190.20299999-190.204c-11.279-11.278-16.919-26.059-16.918-40.841s5.639-29.564 16.917-40.842c22.56-22.553 59.131-22.553 81.686 0.002z"  horiz-adv-x="1024" />

    
    <glyph glyph-name="shoucang1" unicode="&#58917;" d="M886.513113-128c-11.530217 0-24.957811 3.794755-36.488027 9.632839l-249.72406 124.935006-251.621436-124.935006c-24.957811-13.427594-57.651083-11.530217-80.711517 5.692132-23.060433 17.222349-36.488027 48.018244-30.795895 76.77081L288.985177 233.231471 91.220068 417.568985C70.057013 438.732041 62.321551 471.425314 70.057013 498.280502c9.632839 28.752566 32.693273 49.915621 63.343215 53.856328l274.68187 49.915622 122.891676 249.724059c13.427594 26.855188 40.282782 44.223489 69.1813 44.223489s57.651083-17.222349 69.1813-44.223489l122.891676-249.724059L1066.90992 554.034208c28.752566-3.794755 53.856328-24.957811 61.445838-53.856329 9.632839-28.752566 1.897377-59.548461-19.265678-80.711516L911.470924 233.231471l49.915621-268.989738c5.692132-30.795895-7.735462-59.548461-30.795895-76.770809-11.530217-9.632839-26.855188-15.470924-44.077537-15.470924z"  horiz-adv-x="1324" />

    
    <glyph glyph-name="shoucang2" unicode="&#58898;" d="M707.584 802.816c-77.312 0-148.992-38.912-196.608-102.912-47.104 64-119.296 102.912-196.608 102.912-139.264 0-252.416-123.904-252.416-275.968 0-90.624 40.448-154.624 73.216-205.824C229.888 172.032 468.48-12.8 478.72-20.48c9.728-7.68 20.992-11.264 32.256-11.264s22.528 3.584 32.256 11.264c10.24 7.68 248.32 193.024 343.552 341.504 32.768 51.2 73.216 115.2 73.216 205.824 0 152.064-113.152 275.968-252.416 275.968zM821.76 322.56c-87.552-122.88-272.896-263.168-282.112-269.824-8.704-6.656-18.944-10.24-28.672-10.24-10.24 0-19.968 3.072-28.672 10.24-9.216 6.656-190.976 148.48-282.112 274.944-29.184 46.08-75.776 103.424-75.776 184.32 0 136.192 75.776 231.936 200.192 231.936 69.12 0 144.384-66.048 186.368-123.392 42.496 57.344 117.248 123.392 186.368 123.392 124.928 0 205.824-95.744 205.824-231.936 0-80.896-51.712-143.872-81.408-189.44z"  horiz-adv-x="1024" />

    
    <glyph glyph-name="jilu" unicode="&#58964;" d="M901.243 896H122.757C54.96 896 0 841.04 0 773.243v-740.95c0-67.797 54.96-122.758 122.757-122.758h778.486c67.797 0 122.757 54.96 122.757 122.757v740.95C1024 841.04 969.04 896 901.243 896zM236.544 649.226h58.23c29.119 0 52.724-23.605 52.724-52.722 0-29.118-23.605-52.723-52.723-52.723h-58.231c-29.118 0-52.723 23.605-52.723 52.723 0 29.117 23.605 52.722 52.723 52.722z m585.458-495.75H236.543c-29.117 0-52.722 23.604-52.722 52.723 0 29.117 23.605 52.723 52.722 52.723h585.459c29.118 0 52.722-23.606 52.722-52.723 0-29.118-23.604-52.723-52.722-52.723z m0 187.284H236.543c-29.117 0-52.722 23.604-52.722 52.722s23.605 52.723 52.722 52.723h585.459c29.118 0 52.722-23.605 52.722-52.723s-23.604-52.722-52.722-52.722z m0 203.02H455.304c-29.118 0-52.724 23.606-52.724 52.723 0 29.118 23.606 52.723 52.724 52.723h366.698c29.118 0 52.722-23.605 52.722-52.723 0-29.117-23.604-52.722-52.722-52.722z"  horiz-adv-x="1026" />

    
    <glyph glyph-name="shouhou" unicode="&#59005;" d="M870.4 355.555556c-14.222222 2.844444-28.444444-5.688889-31.288889-22.755556-31.288889-159.288889-170.666667-275.911111-335.644444-275.911111-122.311111 0-233.244444 65.422222-295.822223 176.355555-5.688889 11.377778-19.911111 17.066667-31.288888 14.222223-11.377778-2.844444-19.911111-14.222222-19.911112-25.6v-105.244445c0-14.222222 11.377778-28.444444 28.444445-28.444444s28.444444 11.377778 28.444444 28.444444v19.911111c73.955556-82.488889 176.355556-130.844444 290.133334-130.844444 190.577778 0 352.711111 133.688889 389.688889 318.577778 2.844444 14.222222-8.533333 28.444444-22.755556 31.288889zM167.822222 452.266667C199.111111 611.555556 338.488889 725.333333 503.466667 725.333333c122.311111 0 233.244444-65.422222 295.822222-176.355555 5.688889-11.377778 19.911111-17.066667 31.288889-14.222222 11.377778 2.844444 19.911111 14.222222 19.911111 25.6V668.444444c0 14.222222-11.377778 28.444444-28.444445 28.444445s-28.444444-11.377778-28.444444-28.444445v-19.911111C722.488889 733.866667 617.244444 782.222222 503.466667 782.222222 312.888889 782.222222 150.755556 645.688889 116.622222 460.8c-2.844444-14.222222 5.688889-28.444444 22.755556-31.288889h5.688889c11.377778 0 22.755556 8.533333 22.755555 22.755556zM642.844444 435.2c14.222222 0 28.444444 11.377778 28.444445 28.444444s-11.377778 28.444444-28.444445 28.444445h-88.177777l65.422222 54.044444c11.377778 8.533333 14.222222 28.444444 2.844444 39.822223-8.533333 11.377778-28.444444 14.222222-39.822222 2.844444l-85.333333-71.111111-85.333334 71.111111c-11.377778 8.533333-28.444444 8.533333-39.822222-2.844444-8.533333-11.377778-8.533333-28.444444 2.844445-39.822223l65.422222-54.044444h-88.177778c-14.222222 0-28.444444-11.377778-28.444444-28.444445s11.377778-28.444444 28.444444-28.444444h116.622222v-68.266667h-116.622222c-14.222222 0-28.444444-11.377778-28.444444-28.444444s11.377778-28.444444 28.444444-28.444445h116.622222v-136.533333c0-14.222222 11.377778-28.444444 28.444445-28.444444s28.444444 11.377778 28.444444 28.444444v136.533333h116.622222c14.222222 0 28.444444 11.377778 28.444445 28.444445s-11.377778 28.444444-28.444445 28.444444h-116.622222v68.266667h116.622222z"  horiz-adv-x="1024" />

    
    <glyph glyph-name="qiandao" unicode="&#59194;" d="M711.4 607c24.3 0 45.5 19.8 45.5 44.2V851.8c0 24.4-21.2 44.2-45.5 44.2-24.4 0-44.1-19.8-44.1-44.2v-200.7c0-24.3 19.7-44.1 44.1-44.1z m-88.1 177.8H400v-66.7h223.4v66.7z m261.3 0h-83v-66.3h86.2c25.4 0 46.7-21.4 46.7-46.8v-154.4H88.8V671.6c0 25.4 21.4 46.8 46.7 46.8h86.8v66.3h-82.9c-64.3 0-116.8-52.7-116.8-117V-11c0-64.4 50.6-117 114.9-117h747.2c64.2 0 116.8 52.7 116.8 117V667.7c0 64.4-52.6 117.1-116.9 117.1z m49.9-799.2c0-25.4-21.4-46.8-46.7-46.8H135.5c-25.3 0-46.7 21.4-46.7 46.8V450.8h845.8v-465.2zM310.7 607c24.3 0 45.5 19.8 45.5 44.2V851.8C356.2 876.2 335 896 310.7 896c-24.4 0-44.1-19.8-44.1-44.2v-200.7c-0.1-24.3 19.7-44.1 44.1-44.1z m0 0M458.9 32.2L305.5 185.6c-15 15-15 39.3 0 54.3s39.3 15 54.3 0l99.1-99.1 205.3 205.4c15 15 39.3 15 54.3 0s15-39.3 0-54.3L458.9 32.2z"  horiz-adv-x="1024" />

    
    <glyph glyph-name="sousuo" unicode="&#59209;" d="M902.76 65.93l-141 141a367.11 367.11 0 1 1-40.41-44.44l139-139a30 30 0 1 1 42.43 42.43z m-430.53 58.36c-168.18 0-305 136.82-305 305s136.82 305 305 305 305-136.82 305-305-136.82-305-305-305z"  horiz-adv-x="1024" />

    
    <glyph glyph-name="star" unicode="&#58889;" d="M985.40660064-126.833122c-14.910104 0-31.765004 4.278552-47.323373 12.057736l-222.225373 111.112687L492.20629664-114.51607999999999c-14.132185-7.519878-30.33882-11.539124-46.934413-11.539124-21.522411-0.129653-42.396556 6.74196-59.640416 19.577615-31.246391 23.467207-47.323373 64.178273-39.933147 101.1294l45.767536 237.26513L216.04524364 395.409471c-27.097493 27.486452-37.469739 67.289947-27.227146 104.370727l0.388959 1.166877c12.706002 38.247658 44.341352 64.956191 82.718663 70.142315L515.54385064 615.430742l109.297544 222.09572c17.503165 35.135984 53.287415 57.695619 91.01646 57.69562 39.414535 0 76.106356-23.467207 91.405419-58.343885l108.908584-221.447455 243.618131-42.655862c38.636617-5.575082 70.401621-33.320841 81.162826-70.920233 12.057736-36.951127 2.204102-77.402887-25.412003-104.759686l-0.648265-0.648266-174.772347-164.659407 44.211699-237.65409c7.130919-37.988351-8.038491-76.365662-39.414536-100.351481-16.8549-13.48392-37.858698-20.744492-59.510762-20.614839z m-269.548746 187.996961l248.026335-124.077994c7.260572-3.630286 15.688022-5.964042 21.392758-5.964042 8.816409 0 17.114206 2.722715 23.078248 7.779185l1.166877 0.907571c14.132185 10.631552 21.003798 27.356799 17.892125 43.82274l-49.916435 268.900481 197.461636 185.922512c12.057736 12.317042 16.206635 29.820208 10.890859 46.026842l-0.518613 1.68549c-4.408205 15.688022-17.632818 27.227146-33.709799 29.431249l-1.166878 0.129653L877.27593464 563.439858 754.36481764 813.151684c-5.964042 14.002532-22.170676 24.115472-38.506963 24.115472-16.076982 0-31.376045-10.11294-39.284883-25.541656L554.43977364 563.5695109999999 279.83455764 513.6530769999999c-16.725247-2.074449-29.690555-13.224614-35.654596-30.468473-4.278552-15.817675 0.777918-34.747025 12.446695-46.675108l197.591289-184.237022-51.861231-269.030134c-3.111674-15.558369 4.278552-33.450494 17.892125-43.693087 6.871613-5.186123 15.688022-7.908838 25.023044-7.908838 7.130919 0 14.002532 1.68549 19.966573 4.797164l0.907572 0.518612 249.711826 124.207648z m0 0"  horiz-adv-x="1427" />

    
    <glyph glyph-name="xiangzuo" unicode="&#59162;" d="M717.8 832c9.2 0 18.5-3.6 25.7-10.8 14.4-14.4 14.4-37.5 0-51.9L358.1 384l385.3-385.3c14.4-14.4 14.4-37.5 0-51.9a36.576 36.576 0 0 0-51.9 0l-411 411a36.576 36.576 0 0 0 0 51.9l411 411c7.8 7.2 17 11.3 26.3 11.3z"  horiz-adv-x="1024" />

    
    <glyph glyph-name="order" unicode="&#58891;" d="M268.02606186-38.30899283999997a117.44211993 117.44211993 0 0 0-117.28124029 117.2812403L150.74482157 689.0277525399999A117.44211993 117.44211993 0 0 0 268.02606186 806.30899284l488.02831609 0a117.44211993 117.44211993 0 0 0 117.2812403-117.2812403l0-609.97506528a117.44211993 117.44211993 0 0 0-117.2812403-117.28124029z m0 792.97562884a65.79976308 65.79976308 0 0 1-65.71932328-65.71932326l0-609.97506528a65.79976308 65.79976308 0 0 1 65.71932328-65.71932326l488.02831609 0a65.79976308 65.79976308 0 0 1 65.71932328 65.71932326L821.77370123 689.0277525399999a65.79976308 65.79976308 0 0 1-65.71932328 65.71932326zM318.94446042 358.17882159a25.82117841 25.82117841 0 1 0 0 51.56191701l386.11107916 0a25.82117841 25.82117841 0 1 0 0-51.56191701zM318.94446042 236.23207242a25.82117841 25.82117841 0 1 0 0 51.24015779l263.44037172 0a25.82117841 25.82117841 0 1 0 0-51.64235684zM318.94446042 480.52776979a25.82117841 25.82117841 0 1 0 0 51.64235684l386.11107916 0a25.82117841 25.82117841 0 1 0 0-51.64235684z"  horiz-adv-x="1024" />

    
    <glyph glyph-name="guanbi" unicode="&#58890;" d="M512-128C229.171-128 0 101.171 0 384S229.171 896 512 896s512-229.171 512-512-229.171-512-512-512z m0 975.228C256.82 847.228 48.772 639.181 48.772 384S256.819-79.228 512-79.228c255.18 0 463.228 208.047 463.228 463.228S767.181 847.228 512 847.228zM549.39 384l198.306 198.305c9.742 9.743 9.742 26.01 0 37.39l-1.639 1.61a25.512 25.512 0 0 1-35.752 0L512 421.39 313.695 619.696a25.512 25.512 0 0 1-35.752 0l-1.639-1.639c-9.742-9.742-9.742-26.01 0-37.39L474.61 384 276.304 185.695c-9.742-9.743-9.742-26.01 0-37.39l1.639-1.639a25.512 25.512 0 0 1 35.752 0L512 346.58l198.305-198.305a25.512 25.512 0 0 1 35.752 0l1.639 1.639c9.742 9.742 9.742 26.01 0 37.39L549.39 384z"  horiz-adv-x="1024" />

    
    <glyph glyph-name="shezhi" unicode="&#58892;" d="M881 384c0 52.4 32.9 96.8 79 114.5-11 43.2-28 83.9-50.2 121.3C864.6 599.7 810 607.9 773 645c-37 37-45.2 91.7-25.1 136.8C710.4 804 669.7 821 626.5 832c-17.8-46.1-62.2-79-114.5-79-52.4 0-96.8 32.9-114.5 79-43.2-11-83.9-28-121.3-50.2 20.1-45.2 11.9-99.8-25.1-136.8-37-37-91.7-45.2-136.8-25.2C92 582.4 75 541.7 64 498.5c46.1-17.8 79-62.2 79-114.5 0-52.4-32.9-96.8-79-114.5 11-43.2 28-83.9 50.2-121.3C159.4 168.3 214 160.1 251 123c37-37 45.2-91.7 25.1-136.8C313.6-36 354.3-53 397.5-64c17.8 46.1 62.2 79 114.5 79 52.4 0 96.8-32.9 114.5-79 43.2 11 83.9 28 121.3 50.2-20.1 45.2-11.9 99.8 25.1 136.8 37 37 91.7 45.2 136.8 25.2C932 185.6 949 226.3 960 269.5c-46.1 17.7-79 62.1-79 114.5zM512 261c-67.9 0-123 55.1-123 123s55.1 123 123 123 123-55.1 123-123-55.1-123-123-123z"  horiz-adv-x="1024" />

    
    <glyph glyph-name="zu" unicode="&#58893;" d="M512.036571-54.85714299999995c-70.546286 0-365.714286 276.589714-365.714285 548.571429a365.714286 365.714286 0 0 0 731.428571 0c0-271.981714-295.168-548.571429-365.714286-548.571429zM512.036571-128c-77.604571 0-402.285714 309.796571-402.285714 614.4a402.285714 402.285714 0 1 0 804.571429 0c0-304.603429-324.681143-614.4-402.285715-614.4z m0 950.857143a329.142857 329.142857 0 0 1-329.142857-329.142857c0-229.778286 243.382857-512 329.142857-512 81.225143 0 329.142857 279.954286 329.142858 512a329.142857 329.142857 0 0 1-329.142858 329.142857z m0-438.857143a109.714286 109.714286 0 1 0 109.714286 109.714286 109.714286 109.714286 0 0 0-109.714286-109.714286z"  horiz-adv-x="1024" />

    


  </font>
</defs>
</svg>
